<?xml version="1.0" standalone="no"?>
<!DOCTYPE svg PUBLIC "-//W3C//DTD SVG 1.1//EN" "http://www.w3.org/Graphics/SVG/1.1/DTD/svg11.dtd">
<svg xmlns="http://www.w3.org/2000/svg">
<defs >
<font id="LuxuriousScript" horiz-adv-x="530" ><font-face
    font-family="Luxurious Script"
    units-per-em="1000"
    panose-1="0 0 0 0 0 0 0 0 0 0"
    ascent="850"
    descent="-350"
    alphabetic="0" />
<glyph unicode=" " glyph-name="space" horiz-adv-x="160" />
<glyph unicode="!" glyph-name="exclam" horiz-adv-x="332" d="M110 104L326 446Q336 461 351 470T379 479Q400 479 397 457Q395 455 380 435T340 383T286 314T229 240T176 172T138 123T123 104H110ZM62 -3Q44 -3 44 13Q44 29 59 42T91 55Q109 55 109 38Q109 22
94 10T62 -3Z" />
<glyph unicode="&quot;" glyph-name="quotedbl" horiz-adv-x="218" d="M218 352L302 493Q306 499 315 503T332 507Q345 507 345 498Q345 492 337 479Q329 467 316 447T286 405T252 368T218 352ZM114 352L198 493Q202 499 211 503T228 507Q241 507 241 498Q241
492 233 479Q225 467 212 447T182 405T148 368T114 352Z" />
<glyph unicode="#" glyph-name="numbersign" horiz-adv-x="502" d="M18 -107Q16 -105 16 -101Q16 -96 18 -89T24 -76L133 154Q119 153 100 151T64 148T42 147Q30 147 22 150T13 162Q13 171 22 175T41 179H145L201 298Q194 297 179 296T150 294T130 293Q118 293
110 296T101 307Q101 317 110 321T129 325H211Q228 357 240 386T262 432Q274 458 282 471T307 489Q309 490 314 490Q322 490 322 481Q322 467 299 425Q286 389 248 325H382Q398 357 410 386T432 432Q444 458 452 471T478 489Q480 490 485 490Q493 490 493 481Q493
467 470 425Q463 407 450 381T418 325Q463 326 498 326T541 326Q541 323 533 318T514 309T499 305Q481 303 407 303L344 179Q385 180 415 180T453 181Q453 178 445 173T426 163T411 159Q405 158 384 158T333 158Q300 93 267 30T208 -84Q205 -91 198 -100T188 -107Q186
-105 186 -102Q186 -96 189 -89T194 -76L305 158L162 155L38 -84Q35 -91 28 -100T18 -107ZM174 179H314L371 302Q314 302 281 302T236 301L174 179Z" />
<glyph unicode="$" glyph-name="dollar" horiz-adv-x="413" d="M53 -70L95 -5Q72 -5 52 6T32 38Q32 41 34 49Q38 59 45 67T66 80Q69 81 76 81Q84 81 93 79T104 74Q100 74 98 72T93 68H94Q78 49 78 34Q78 12 102 7Q128 51 156 95T211 182H212Q195 197 188 212T181
243Q181 269 197 295T232 338Q261 360 291 370T339 384H338L364 427H388L360 384Q382 386 397 379T413 358Q413 356 413 354T411 348Q407 332 394 324T372 316Q364 316 362 321Q370 336 370 348Q370 367 353 370L260 225Q268 215 274 211L282 204Q302 181 302 153Q302
119 279 85T214 27T117 -2H118L79 -70H53ZM246 238L324 358Q302 353 281 340T246 308T232 271Q232 268 232 265T234 258Q236 254 239 248T246 238ZM125 9Q152 16 179 35T224 81T238 138Q237 146 233 153T223 168L125 9Z" />
<glyph unicode="%" glyph-name="percent" horiz-adv-x="520" d="M144 -38Q139 -38 139 -32Q139 -27 143 -22Q179 20 219 74T300 185T376 292T438 374Q426 365 413 362T387 357Q384 357 382 357T376 356Q357 356 346 363Q338 337 320 307T278 250T226 206T174 189Q154
189 145 198T136 224Q136 249 153 282T198 348T258 401T319 423Q351 423 351 390Q351 386 351 382T349 373Q361 366 379 366Q403 366 422 378T458 407T491 434T526 441Q501 413 467 369T393 272T312 163T231 58T158 -29Q149 -38 144 -38ZM186 209Q203 209 228 229T277
280T317 340T333 387Q333 402 318 402Q305 402 287 388T250 352T213 304T186 257T175 222Q175 209 186 209ZM348 0Q329 0 320 9T310 35Q310 59 327 92T372 158T432 211T493 233Q525 233 525 200Q525 176 509 143T465 76T408 22T348 0ZM362 20Q379 20 404 40T453
91T493 151T509 198Q509 213 494 213Q481 213 463 199T426 163T389 115T362 68T351 33Q351 20 362 20Z" />
<glyph unicode="&amp;" glyph-name="ampersand" horiz-adv-x="642" d="M170 18Q120 18 94 40T67 103Q67 108 68 115T70 127Q76 161 99 192T156 249T227 290T300 308Q299 313 299 320T298 338Q298 368 316 399T364 457T433 500T511 517Q515 517 520 517T530 516Q556
513 576 501T596 466Q596 461 594 453Q584 421 555 395T485 357Q481 356 478 356T473 355Q469 355 469 357Q469 363 482 368Q514 383 537 406T567 458Q569 472 561 484T521 496Q495 496 462 480T394 431Q373 412 356 384T326 325Q326 324 325 322T324 318Q322 314
322 309Q351 310 370 298Q381 292 379 290Q376 281 356 281Q330 281 317 288T301 305Q260 298 221 268T154 197T120 114Q117 99 117 86Q117 62 130 47T180 32Q211 32 243 46T306 84T359 137T393 194H390L358 202L298 213Q298 213 288 209T265 199T238 194Q220 194
220 202Q220 210 232 217T263 225Q270 225 276 225T290 223L310 238Q330 250 352 258T397 266Q421 265 432 255T444 230Q444 214 437 200H434Q439 199 445 199T457 199Q489 199 523 209T582 239T606 291Q606 299 603 309T590 322Q596 324 602 324Q619 324 631 312T644
283Q644 247 620 225T562 194T500 184Q484 184 467 184T430 188L423 177Q408 153 381 126T318 74T245 34T170 18ZM394 205Q396 205 396 205L400 219Q401 222 401 227Q401 236 396 242T378 249Q375 249 372 249T366 248Q359 247 350 244T331 235L320 228Q318 227
315 225T309 221H307L330 216Q339 215 348 213T366 210L394 205Z" />
<glyph unicode="&apos;" glyph-name="quotesingle" horiz-adv-x="179" d="M179 352L264 493Q268 499 277 503T293 507Q306 507 306 498Q306 490 298 479Q290 467 277 447T248 405T214 368T179 352Z" />
<glyph unicode="(" glyph-name="parenleft" horiz-adv-x="239" d="M72 -92Q65 -92 63 -83Q62 -75 60 -59T58 -22Q58 9 66 52T93 143T142 237Q186 298 234 339T329 405T415 444T481 462Q495 466 495 461Q495 460 491 459T482 456Q447 445 396 418T289 345T182 228Q138
163 116 101T86 -10T78 -83V-86Q78 -89 78 -90T72 -92Z" />
<glyph unicode=")" glyph-name="parenright" horiz-adv-x="239" d="M-98 -88Q-111 -92 -111 -86L-103 -83Q-102 -83 -102 -83T-100 -82Q-63 -69 -16 -41T81 34T177 154Q212 208 230 260T254 356T260 430Q260 438 260 445T259 458V461Q259 463 258 464T264 466Q269
466 270 464T273 459Q277 443 281 418T285 363Q285 318 272 262T218 144Q178 81 133 39T45 -30T-35 -70T-98 -88Z" />
<glyph unicode="*" glyph-name="asterisk" horiz-adv-x="301" d="M120 203Q117 203 117 206Q117 213 139 240T190 298Q173 301 155 304T123 311T110 322Q110 330 144 330Q155 330 167 329T193 326Q183 345 175 366T166 401Q166 403 167 406T171 410Q176 410 190
390T223 335Q268 380 290 397T315 415Q318 415 318 411Q318 406 307 390T280 355T250 322Q270 319 291 317T326 311T341 302Q341 298 326 297T287 295T242 295Q256 270 263 246T270 217Q270 213 266 213Q262 213 246 233T214 285Q180 251 154 227T120 203Z" />
<glyph unicode="+" glyph-name="plus" horiz-adv-x="423" d="M162 114L239 222H130L146 245H256L321 336H354L289 245H401L384 222H272L195 114H162Z" />
<glyph unicode="," glyph-name="comma" horiz-adv-x="147" d="M-29 -84Q-23 -79 -5 -66T33 -35T66 0Q60 -3 52 -3Q43 -3 38 1Q32 6 32 13Q32 29 48 42T80 55Q96 55 96 39Q96 33 94 27T89 13Q76 -15 47 -40T-5 -82Q-10 -82 -20 -86T-29 -84Z" />
<glyph unicode="-" glyph-name="hyphen" horiz-adv-x="274" d="M101 210L118 232H305L288 210H101Z" />
<glyph unicode="." glyph-name="period" horiz-adv-x="147" d="M50 -3Q32 -3 32 13Q32 29 47 42T79 55Q97 55 97 38Q97 22 82 10T50 -3Z" />
<glyph unicode="/" glyph-name="slash" horiz-adv-x="409" d="M2 -63L482 569H511L31 -63H2Z" />
<glyph unicode="0" glyph-name="zero" horiz-adv-x="259" d="M62 -2Q10 -2 10 53Q10 61 11 70T14 90Q23 141 52 192T114 283Q156 336 202 364T277 392Q302 392 316 380T330 338Q330 305 313 261T268 171T204 86T132 23T62 -2ZM67 14Q84 10 114 41T194 142Q205
156 223 187T257 253T282 314Q285 326 287 336T290 353Q290 376 275 376Q262 376 240 355T193 302T144 237Q118 199 95 151T60 66Q55 48 55 37Q55 14 67 14Z" />
<glyph unicode="1" glyph-name="one" horiz-adv-x="172" d="M-6 -6Q16 29 45 74T106 167T165 253T208 313Q195 303 180 293T154 274Q140 265 123 260T94 253T82 254Q117 272 155 300T233 358L258 376Q273 387 283 391T301 397Q311 397 304 385T283 355Q234 285
195 223T121 102L97 62Q74 26 54 13T-2 -6H-6Z" />
<glyph unicode="2" glyph-name="two" horiz-adv-x="302" d="M169 -2Q155 -2 142 0T115 6Q100 9 84 11T50 14Q39 14 27 13T1 7H2Q0 6 -3 6Q-11 6 -11 13Q-11 22 6 29Q8 31 10 32T14 34L49 54L113 92Q136 107 164 129T217 174H216Q232 191 255 218T295 276T313 333Q313
346 306 354T284 363Q260 363 237 352T195 324T167 290L165 287Q160 282 154 282Q145 282 145 288Q164 324 191 345T248 376T301 386Q332 386 351 375T370 335Q370 305 351 275T306 220T262 178L250 168Q202 126 147 91T41 29Q55 31 69 31T100 32Q138 33 175 38T242
74L246 78Q251 84 256 89T264 95Q268 95 267 84Q264 63 253 43T216 9Q205 3 193 1T169 -2Z" />
<glyph unicode="3" glyph-name="three" horiz-adv-x="344" d="M86 -6Q49 -6 25 3T0 41Q0 67 21 91T78 130T153 146Q163 146 173 143T183 135H168Q143 135 112 122T59 89T37 45Q37 26 51 18T83 9Q122 9 158 28T223 79T264 153Q270 170 270 186Q270 211 253 211Q251
211 240 204Q233 200 224 196T207 192Q186 192 186 208Q186 217 198 219T229 223L256 226Q278 235 298 251T332 289T346 332Q346 346 340 354T318 363Q294 363 270 352T228 323T199 289Q198 287 195 285T186 282Q178 282 178 288Q197 324 224 345T281 376T334 386Q366
386 382 373T398 337Q398 316 384 296T348 260T305 233T268 218Q298 218 310 203T322 168Q322 162 321 156T318 143Q302 103 264 69T178 15T86 -6Z" />
<glyph unicode="4" glyph-name="four" horiz-adv-x="277" d="M48 -31Q67 -5 97 39T159 133H39Q35 132 32 132T25 132Q16 132 16 134Q41 163 81 194T164 256Q187 273 213 292T266 332Q274 339 292 352T330 376T362 388Q370 388 363 377T345 349Q317 307 288 261T225
159Q240 161 256 162T289 167Q289 163 279 151T255 133H209L151 36Q128 0 108 -13T52 -31H48ZM73 152L109 154Q125 154 141 154T174 156L186 174Q219 224 246 266T285 322Q251 300 212 270T136 209T73 152Z" />
<glyph unicode="5" glyph-name="five" horiz-adv-x="322" d="M86 -6Q49 -6 25 3T0 41Q0 67 21 91T78 130T153 146Q163 146 173 143T183 135H168Q143 135 112 122T59 89T37 45Q37 25 51 17T83 9Q119 9 152 25T212 68T254 127T269 193Q269 213 259 229T226 246Q214
246 200 244T175 238Q162 233 157 233Q153 233 153 236Q153 240 160 250Q187 288 206 314T234 350Q227 352 213 353T195 354Q186 354 177 351T161 338Q152 338 152 347Q152 368 197 368Q216 368 246 363T295 358Q318 358 341 362T381 376T397 403Q397 408 395 413T387
421H407Q422 421 428 413T434 394Q434 372 417 360T375 343T329 338Q295 338 259 344L195 260Q216 269 244 269Q290 269 309 248T328 197Q328 157 307 121T250 56T172 11T86 -6Z" />
<glyph unicode="6" glyph-name="six" horiz-adv-x="240" d="M63 -2Q13 -2 13 60Q13 89 26 127T62 204T108 273Q145 319 186 346T266 385T336 397Q351 397 361 393T373 381Q368 382 363 382T352 382Q305 382 265 360T190 301T126 221Q110 196 94 162T67 95T54 43Q54
30 57 22T71 14Q91 15 113 35T156 81T188 126Q208 158 217 181T226 221Q226 249 203 249Q188 249 172 241T147 225Q141 220 138 226V227Q138 232 146 238Q157 249 176 256T212 264Q219 264 222 263Q242 261 253 246T265 207Q265 190 258 169T235 126Q212 92 182
63T121 16T63 -2Z" />
<glyph unicode="7" glyph-name="seven" horiz-adv-x="209" d="M42 -7Q32 -7 24 -4Q60 52 106 119T206 250T315 362H289Q264 362 234 359T174 346T124 314Q114 303 110 299T102 295Q99 295 99 301Q99 322 112 344T150 380Q162 386 174 388T198 390Q212 390 225
388T251 383Q267 380 283 377T318 374Q330 374 342 377T359 384Q363 386 366 388T370 391Q379 391 385 380Q388 373 372 368T331 362H330Q318 350 296 324T250 264Q234 242 215 211T178 150Q154 112 131 76T90 19Q71 -7 42 -7Z" />
<glyph unicode="8" glyph-name="eight" horiz-adv-x="278" d="M81 -6Q56 -6 39 9T22 50Q22 87 49 118T115 173T190 206Q189 214 189 221T188 236Q188 257 193 274T208 314Q225 346 257 369T330 393Q352 393 365 381T378 346Q378 318 356 291T303 246T242 222Q244
215 247 195T251 154Q251 109 228 73T167 15T81 -6ZM240 237Q263 245 286 263T325 302T341 342Q341 358 332 366T308 374Q289 374 269 355T242 313Q237 296 237 275Q237 265 238 255T240 237ZM107 11Q134 11 153 31T184 83T195 147Q195 168 192 196Q156 180 128
148T86 79Q79 60 79 46Q79 11 107 11Z" />
<glyph unicode="9" glyph-name="nine" horiz-adv-x="246" d="M10 -7Q-8 -7 -21 -3T-36 10Q-30 9 -25 9T-14 9Q32 9 70 30T143 87T207 165Q188 151 173 147T147 143Q117 143 101 161T85 207Q85 237 99 268T138 327T192 372T252 389Q310 389 317 333Q319 305 308
269T278 195T234 127Q201 83 161 53T82 8T10 -7ZM152 159Q175 159 194 170T229 201Q252 231 264 271T277 347Q277 381 254 381Q236 381 214 361T172 311T140 251T127 197Q127 181 133 170T152 159Z" />
<glyph unicode=":" glyph-name="colon" horiz-adv-x="213" d="M140 191Q122 191 122 207Q122 223 137 236T169 249Q187 249 187 232Q187 216 172 204T140 191ZM50 -3Q32 -3 32 13Q32 29 47 42T79 55Q97 55 97 38Q97 22 82 10T50 -3Z" />
<glyph unicode=";" glyph-name="semicolon" horiz-adv-x="213" d="M140 191Q122 191 122 207Q122 223 137 236T169 249Q187 249 187 232Q187 216 172 204T140 191ZM-29 -84Q-23 -79 -5 -66T33 -35T66 0Q60 -3 52 -3Q43 -3 38 1Q32 6 32 13Q32 29 48 42T80 55Q96
55 96 39Q96 33 94 27T89 13Q76 -15 47 -40T-5 -82Q-10 -82 -20 -86T-29 -84Z" />
<glyph unicode="&lt;" glyph-name="less" horiz-adv-x="265" d="M213 47Q210 47 204 50L85 107Q80 110 80 117Q80 127 94 141L254 299Q255 300 257 300Q260 300 262 297T260 289L122 126L215 63Q221 59 221 54Q221 47 213 47Z" />
<glyph unicode="=" glyph-name="equal" horiz-adv-x="303" d="M105 210L122 232H309L292 210H105ZM54 117L70 139H258L241 117H54Z" />
<glyph unicode="&gt;" glyph-name="greater" horiz-adv-x="265" d="M85 46Q82 46 81 50T82 58L221 221L127 283Q121 288 121 293Q121 299 129 299Q132 299 138 296L258 239Q263 236 263 230Q263 221 248 206L88 47Q87 46 85 46Z" />
<glyph unicode="?" glyph-name="question" horiz-adv-x="311" d="M126 111Q134 142 153 171T212 231Q280 281 326 335T372 443Q372 482 336 482Q307 482 278 460T229 405T209 342Q209 326 215 319T222 310Q222 307 215 307Q199 307 191 322T182 353Q182 385 200
413T248 463T308 497T367 510H368Q395 510 411 491T427 439Q427 397 405 362T347 298T273 242T202 192Q193 185 178 170T149 139T126 111ZM81 -3Q62 -3 62 13Q62 15 62 18T64 24Q69 35 81 45T106 55Q125 55 125 38Q125 24 111 11T81 -3Z" />
<glyph unicode="@" glyph-name="at" horiz-adv-x="768" d="M272 -46Q199 -46 157 -13T114 83Q114 92 115 102T118 122Q132 184 174 245T274 352Q337 403 412 434T554 474Q580 477 600 477Q671 477 702 450T734 378Q734 342 713 299T653 213T560 134Q523 111 488
95T435 79Q429 79 426 80Q405 86 405 111Q405 128 412 148T430 186Q418 171 402 153T371 122Q353 105 337 93T301 78Q270 76 270 114Q270 134 281 162T317 222Q334 243 358 267T411 313T471 349T530 363Q543 363 548 359T555 351Q557 347 556 346T552 346Q551 346
544 346T534 346Q503 344 463 316T384 242Q350 204 331 169T311 117Q311 105 320 105Q325 105 335 110T362 130Q388 151 413 180T462 241T509 298T554 338Q581 356 591 358T609 361Q604 356 590 338T560 299T534 264Q518 242 501 217T469 168T449 126Q448 123 448
119Q448 108 462 108Q478 108 503 119T543 139Q587 167 622 207T677 292T698 374Q698 413 672 438T585 464Q577 464 568 464T550 462Q489 455 418 422T286 333Q243 293 208 238T162 130Q160 120 159 110T158 91Q158 32 198 2T301 -28Q309 -28 317 -28T333 -26Q406
-17 474 17T600 104T699 222Q705 231 717 231Q722 231 725 229T726 222Q652 108 546 40T314 -43Q293 -46 272 -46Z" />
<glyph unicode="A" glyph-name="A" horiz-adv-x="653" d="M91 -31Q55 -31 21 -19T-35 17T-58 81Q-58 128 -21 178T81 258Q137 283 198 294T326 306Q373 306 419 303T511 293Q561 348 612 397T713 483T814 530Q786 530 745 533T658 541T564 545Q496 545 437 531T345
473Q336 460 332 448T328 425Q328 411 334 400Q338 396 343 392T352 387Q348 383 342 383Q335 383 329 386T318 394Q308 405 303 419T298 448Q298 476 311 495Q340 533 383 551T493 569Q501 569 509 569T526 568Q601 564 673 553T826 542Q870 542 905 546T952 563H954Q966
563 966 550Q965 533 949 527T912 521Q896 521 881 523T855 526Q805 523 751 489T641 402T532 290Q550 287 568 284T605 277Q638 318 673 356T741 426Q763 448 789 468T840 501T884 515Q871 505 844 479T794 427Q766 396 730 354T658 267Q677 263 695 259T733 250Q741
249 741 244Q741 242 738 240T729 239L648 255Q608 205 576 159T529 86Q522 73 517 60T512 35Q512 15 529 15Q540 15 559 25Q588 42 610 65T653 111Q657 111 657 105Q657 96 653 91Q607 37 577 18T509 -2Q485 -2 475 9T464 38Q464 55 471 75T490 114Q510 149 537
187T595 265Q576 268 558 271T519 276Q478 230 438 186T361 106Q324 70 284 39T197 -12T91 -31ZM95 7Q129 7 166 15T246 47T342 118Q380 153 419 194T498 279Q471 282 444 284T388 286Q312 286 233 279T79 236Q22 211 -6 173T-35 100Q-35 62 -2 35T95 7Z" />
<glyph unicode="B" glyph-name="B" horiz-adv-x="659" d="M-37 -31Q-46 -24 -46 -10Q-46 4 -37 18T-2 40Q11 44 32 44Q67 44 120 34T254 13Q272 11 291 9T331 7Q344 7 357 8T383 11Q448 22 501 63T578 169Q586 190 586 215Q586 240 574 260T530 281Q514 281 500
278T472 261Q469 269 469 274Q469 291 507 294Q518 294 529 295T550 302Q604 325 632 357T673 433Q675 441 676 447T677 461Q677 495 652 519Q614 485 577 439T504 344T438 250Q414 217 388 180T334 111T276 58T215 35Q239 52 264 82T314 150T362 224T407 290Q454
358 512 424T629 536Q608 547 578 553T506 559Q439 559 379 539T268 485T182 412T126 331T106 257Q106 225 126 203T192 177Q199 177 199 174Q199 170 190 170Q131 175 103 204T75 275Q75 320 104 371T190 468T325 543T503 572Q551 572 587 567T648 550Q683 575
717 589T783 603Q801 603 819 598T849 579T862 541Q856 561 834 573T788 586Q760 586 731 573T673 537Q698 521 708 499T719 454Q719 423 699 389T639 327T542 290Q566 290 588 279T623 247Q631 234 634 221T637 194Q637 163 622 133T583 77T530 35Q487 11 440
2T341 -7Q301 -7 252 -2T151 8Q139 9 127 9T101 10Q58 10 19 2T-37 -31Z" />
<glyph unicode="C" glyph-name="C" horiz-adv-x="534" d="M202 -41Q172 -41 145 -30T100 7T82 71Q82 127 107 182T173 290Q109 298 68 322T27 392Q27 424 45 445T90 480T149 500T208 509T252 511Q257 511 275 511T315 509T353 504T369 497Q369 493 362 493Q349
493 333 494T301 496Q289 496 277 496T254 495Q234 494 204 491T145 477T95 446T75 390Q75 353 105 333T185 306Q232 362 292 409T414 492T535 547T638 567Q667 567 692 557T717 513Q717 474 687 440T605 378T491 330T361 298T233 287H225Q188 237 166 185T143
80Q143 31 165 6T217 -20Q261 -20 308 1T395 58T464 133T498 212Q498 214 498 216T499 220Q499 233 491 241T465 250Q461 250 457 250T448 248Q420 243 384 219T317 160T269 84Q265 82 264 82Q259 82 262 94Q272 121 294 151T348 209T415 253T488 270Q516 269 529
257T542 225Q542 196 518 158Q499 128 465 94T386 29T295 -21T202 -41ZM237 303Q292 303 354 314T477 346T586 393T664 451T694 516Q694 539 677 546T639 553Q598 553 546 534T439 480T331 401T237 303Z" />
<glyph unicode="D" glyph-name="D" horiz-adv-x="731" d="M-37 -31Q-46 -24 -46 -10Q-46 4 -37 18T-2 40Q11 44 32 44Q67 44 120 34T254 13Q272 11 291 9T331 7Q344 7 357 8T383 11Q418 17 466 35T562 89T647 185T699 334Q701 348 702 360T703 385Q703 472 649
517Q611 482 575 437T504 343T438 250Q414 217 388 180T334 111T276 58T215 35Q239 52 264 82T314 150T362 224T407 290Q454 358 510 422T625 533Q578 559 506 559Q439 559 379 539T268 485T182 412T126 331T106 257Q106 225 126 203T192 177Q199 177 199 174Q199
170 190 170Q131 175 103 204T75 275Q75 320 104 371T190 468T325 543T503 572Q543 571 578 566T644 547Q681 573 716 588T783 603Q801 603 819 598T849 579T862 541Q856 561 834 573T788 586Q759 586 729 572T670 534Q711 510 734 469T758 366Q758 302 734 244T670
140T586 63T502 21Q463 9 423 1T341 -7Q301 -7 252 -2T151 8Q139 9 127 9T101 10Q58 10 19 2T-37 -31Z" />
<glyph unicode="E" glyph-name="E" horiz-adv-x="467" d="M133 -46Q72 -46 41 -18T9 61Q9 75 12 91Q19 135 48 174T119 246T209 297T300 317Q299 322 299 328T298 339Q239 344 190 362T111 409T81 480Q81 500 88 518Q102 556 133 569T196 582Q201 582 206 582T217
581Q240 579 267 567T315 530Q321 523 321 520Q321 518 319 518Q317 518 309 524Q274 561 229 564Q225 565 220 565T209 565Q186 565 160 555T122 512Q118 502 116 492T114 473Q114 439 139 414T206 374T298 354Q301 395 323 434T382 506T464 558T559 578Q564 578
570 578T582 577Q614 574 637 560T661 517Q661 509 658 498Q645 456 610 426T528 376T429 348T334 338H322L317 318Q356 320 382 305Q390 300 390 294Q385 283 361 283Q333 283 319 292T301 314Q261 308 222 285T149 228T94 154T65 74Q64 65 63 56T61 39Q61 9 79
-9T146 -28Q190 -28 236 -6T323 51T392 128T426 206Q426 208 426 210T427 214Q427 227 419 235T393 244Q389 244 385 244T376 242Q348 237 312 213T245 154T197 78Q193 76 192 76Q187 76 190 89Q200 116 222 146T275 203T342 247T415 264Q444 264 457 252T470 219Q470
189 446 153Q427 123 393 89T315 24T225 -26T133 -46ZM328 352H335Q386 352 435 363T527 394T597 442T634 504Q635 508 635 515Q635 530 622 541T571 552Q539 552 496 532T409 471Q381 445 360 413T328 352Z" />
<glyph unicode="F" glyph-name="F" horiz-adv-x="516" d="M141 -24Q101 -24 75 -13T33 16Q15 42 15 76Q15 115 38 158T102 236Q149 278 210 304T340 331Q353 331 365 330T391 327Q403 326 403 322Q403 320 396 320Q388 320 380 321T362 322Q322 322 279 307T197
266T129 211Q105 188 83 154T52 80Q51 75 51 70T50 59Q50 31 68 12T129 -7Q174 -7 213 14T288 69T353 135Q382 166 416 211T487 306H407L418 320H498L540 373Q564 402 591 431T644 486T693 524Q645 530 596 536T495 545Q486 545 477 545T460 546Q393 546 334 531T242
473Q233 461 229 449T225 426Q225 412 232 400Q236 396 241 392T250 387Q246 383 239 383Q232 383 226 386T215 394Q205 405 200 419T195 448Q195 476 209 495Q263 569 391 569Q399 569 407 569T424 568Q498 564 570 553T723 542Q767 542 802 546T850 563H852Q856
563 859 561T863 552Q863 535 844 527T805 517Q781 517 757 518T710 522H709Q684 507 644 467T566 367L536 320H598L586 306H528Q490 245 449 186T362 80T262 4T141 -24Z" />
<glyph unicode="G" glyph-name="G" horiz-adv-x="584" d="M110 -218Q76 -218 44 -208T-10 -173T-32 -102Q-32 -69 -15 -48T14 -26Q16 -26 18 -28Q9 -36 4 -54T-2 -92Q-2 -133 25 -165T105 -197Q175 -197 230 -163T331 -72T417 51Q436 82 451 106T480 151Q453 121
418 88T343 27T262 -19T180 -37Q140 -37 111 -13T82 71Q82 127 107 182T173 290Q109 298 68 322T27 392Q27 424 45 445T90 480T149 500T208 509T252 511Q257 511 275 511T315 509T353 504T369 497Q369 493 362 493Q349 493 333 494T301 496Q289 496 277 496T254
495Q234 494 204 491T145 477T95 446T75 390Q75 353 105 333T185 306Q232 362 292 409T414 492T535 547T638 567Q667 567 692 557T717 513Q717 474 687 440T605 378T491 330T361 298T233 287H229Q186 232 161 173T135 57Q135 16 152 0T194 -16Q218 -16 245 -6T298
18T340 46Q380 77 417 111T484 175T530 224Q550 250 566 271T609 293Q626 293 626 278Q626 266 615 261Q590 260 569 245T536 202Q520 163 504 122T468 40Q435 -29 386 -88T268 -182T110 -218ZM241 303Q296 304 358 315T479 347T587 393T665 451T694 516Q694 539
677 546T639 553Q598 553 547 534T442 480T335 401T241 303Z" />
<glyph unicode="H" glyph-name="H" horiz-adv-x="738" d="M148 -31Q109 -31 76 -19T22 19T2 89Q2 129 22 165T76 231T151 277T235 294Q243 294 244 291T240 287Q206 287 170 271T103 226T53 162T34 91Q34 35 63 11T134 -14Q166 -14 200 -2T265 33Q332 86 385 155T492
294Q528 339 560 381T636 464Q655 482 676 498T719 524Q654 528 582 536T445 545Q380 545 325 530T240 473Q223 449 223 426Q223 410 230 400Q233 396 238 392T247 387Q243 383 237 383Q230 383 224 386T213 394Q203 405 198 419T193 448Q193 476 206 495Q260 569
389 569Q418 569 452 566T526 556Q545 553 577 550T647 544T723 541Q767 541 801 546T847 563H850Q858 563 858 555Q855 541 844 534T819 525Q802 523 784 523T745 523Q704 489 664 442T582 336L538 276H689Q720 314 753 350T818 418Q840 439 866 459T917 492T962
506Q949 496 922 470T871 418Q840 385 802 339T726 245T658 155T614 86Q598 59 598 36Q598 15 615 15Q625 15 644 25Q673 42 693 62T738 111Q742 111 742 105Q742 96 738 91Q692 37 662 18T594 -2Q569 -2 559 9T549 39Q549 55 556 75T574 114Q594 149 620 187T677
262H528Q493 213 453 162T367 67T267 -4T148 -31Z" />
<glyph unicode="I" glyph-name="I" horiz-adv-x="600" d="M187 -50Q126 -50 92 -17T58 66Q58 80 60 94T69 124Q83 161 111 189T180 238Q200 247 233 253T291 258Q299 257 299 254T294 250Q243 250 200 222T130 154Q113 129 103 100T92 44Q92 13 110 -9T170 -32Q208
-32 246 -17T316 24Q384 76 436 150T539 297Q578 353 620 403T701 490T765 541L747 544Q740 546 727 547T696 548Q668 548 632 541T559 511T494 446Q479 423 479 394Q479 376 488 362T521 348Q525 348 529 348T538 350Q539 350 539 349Q539 343 528 339Q524 338
520 338T512 337Q475 337 460 360T445 411Q445 452 466 479Q505 532 558 548T664 564Q701 564 734 561T793 557Q826 557 856 563T898 589Q905 584 905 572Q905 559 892 545T845 530Q832 530 816 532T779 538Q761 523 739 496T694 438T655 380T629 338Q584 263 539
197T443 78T330 -6Q303 -21 263 -35T187 -50Z" />
<glyph unicode="J" glyph-name="J" horiz-adv-x="607" d="M82 -154Q25 -154 -13 -123T-51 -35Q-51 8 -25 54T69 149Q170 218 292 250T544 298Q582 352 620 400T695 486T768 540L747 544Q728 548 700 550T638 553Q599 553 558 546T481 518T418 459Q411 449 407
435T402 406Q402 388 412 375T445 361Q449 361 453 361T462 363Q463 363 463 362Q463 361 461 358T451 352Q447 351 443 351T435 350Q399 350 384 371T369 418Q369 459 390 486Q427 536 481 551T596 567Q646 567 696 562T793 557Q826 557 856 563T898 589Q905 584
905 572Q905 559 892 545T845 531Q823 531 785 537Q745 513 698 449T598 304L641 308Q643 308 643 306Q643 305 641 302T638 296L590 291Q541 215 491 139T393 9Q358 -30 308 -67T200 -129T82 -154ZM74 -119Q152 -119 217 -76T341 27Q388 75 436 144T534 284Q459
273 379 255T224 208T92 141Q26 95 -3 50T-32 -31Q-32 -70 -3 -94T74 -119Z" />
<glyph unicode="K" glyph-name="K" horiz-adv-x="633" d="M542 -39Q525 -39 509 -33T482 -9T473 46Q474 72 485 105T511 172T537 234T548 277Q548 281 546 285Q533 287 527 293T520 306Q520 314 530 314Q549 314 557 295Q596 308 637 338T720 407T804 487T889
562T972 618T1052 640Q1085 640 1109 625T1134 574Q1134 567 1131 563T1128 562Q1128 581 1115 592T1084 609T1048 613Q1015 610 977 588T896 532T809 460T722 386T637 324T558 289Q560 285 560 280T560 268Q560 239 551 195Q549 185 544 163T535 112T531 58Q531
28 539 7T570 -14Q589 -14 603 -7T628 10Q629 10 631 9T630 3Q617 -16 592 -27T542 -39ZM70 -37Q52 -37 32 -31T-2 -10T-17 32Q-17 46 -8 62T17 80Q13 76 12 67T10 51Q11 34 25 22T69 10Q107 10 148 32T232 92T315 176T390 269Q418 309 454 356T533 450T621 533Q608
535 592 537T555 544Q536 547 508 550T446 553Q407 553 366 546T289 518T226 459Q219 449 215 435T210 406Q210 388 220 375T253 361Q257 361 261 361T270 363Q271 363 271 362Q271 361 269 358T259 352Q255 351 251 351T243 350Q207 350 192 371T177 418Q177 459
198 486Q235 536 289 551T404 567Q454 567 504 562T601 557Q634 557 664 563T706 589Q713 584 713 572Q713 562 706 551T679 534Q664 530 642 531Q596 495 553 444T472 341T406 246Q371 198 334 148T256 56T169 -11T70 -37Z" />
<glyph unicode="L" glyph-name="L" horiz-adv-x="885" d="M682 -88Q622 -88 562 -72T443 -31T327 17Q284 -5 234 -22T130 -42Q64 -42 33 -18T2 39Q2 72 33 100T119 128Q167 128 219 106T327 55Q365 87 402 127T477 214Q450 216 420 224T362 247T318 283T300 334Q300
367 319 390T368 429T434 451T503 459Q542 459 577 453T641 435Q677 479 717 516T800 577T891 600Q930 600 948 580T967 527Q967 487 940 437T858 339T726 257T546 215Q506 163 461 117T360 37Q409 12 459 -12T563 -52T673 -68Q705 -68 737 -60T791 -30T813 29Q813
64 787 79T722 94Q696 94 666 86T613 61Q609 58 606 58Q603 58 603 60Q603 70 625 81T677 101T731 110Q753 110 782 103T833 77T855 27Q855 -13 828 -38T762 -76T682 -88ZM560 233Q650 243 720 278T841 359T917 453T943 534Q943 557 931 571T892 585Q867 585 840
571T788 534T742 490T710 451L683 413Q712 393 732 367Q736 362 736 353Q736 347 734 347Q733 347 731 350Q708 379 674 400Q647 360 619 318T560 233ZM489 230Q518 265 553 317T630 421Q570 444 498 444Q476 444 449 437T397 415T356 379T340 330Q340 298 364
276T423 243T489 230ZM130 -26Q175 -26 216 -11T295 31Q243 52 195 66T102 81Q61 81 43 69T25 40Q25 18 54 -4T130 -26Z" />
<glyph unicode="M" glyph-name="M" horiz-adv-x="674" d="M-82 -76Q-100 -76 -118 -71T-149 -51T-162 -11Q-162 3 -152 20T-126 38Q-134 26 -134 9Q-134 -9 -119 -21T-71 -34Q-33 -34 9 -13T94 44T178 123T254 210Q294 260 335 308T414 394T483 454Q493 461 516
477T577 506Q540 505 500 507T421 515Q400 518 378 520T333 522Q272 522 218 506T135 450Q118 426 118 403Q118 387 125 377Q129 373 134 369T142 364Q138 360 132 360Q125 360 119 363T108 371Q98 382 93 396T88 425Q88 453 102 472Q130 510 174 528T285 546Q314
546 348 543T422 533Q462 527 505 524T588 520Q632 520 663 524T702 539H704Q712 539 710 530Q707 518 697 515T674 506Q602 441 544 369T434 222Q401 176 370 131T310 44Q336 59 378 99T470 192T566 299Q607 346 655 394T754 484T853 550T942 576Q969 576 994
565T1019 519Q1019 508 1012 494T991 477Q996 482 998 491T1001 508Q1001 525 987 536T940 548Q900 548 854 525T759 463T664 378T578 288Q536 240 493 193T409 107T338 46T288 26Q287 26 287 27Q284 27 282 33Q281 36 281 44Q281 70 300 109T350 194T415 284T481
365T534 423Q557 446 584 469T639 508H624Q603 507 577 496T525 468T481 436Q454 413 418 375T343 291T267 198Q230 151 190 103T105 15T15 -51T-82 -76ZM528 0Q504 0 495 10T485 37Q485 54 492 74T511 114Q540 164 580 217T665 322T755 418Q777 439 803 459T854
492T898 506Q885 496 858 470T808 418Q777 385 739 339T663 245T595 155T550 86Q543 74 539 61T534 37Q534 18 551 18Q562 18 586 30Q611 44 633 66T680 117Q683 117 683 114Q683 110 680 103T674 92Q635 46 600 23T528 0Z" />
<glyph unicode="N" glyph-name="N" horiz-adv-x="546" d="M-82 -76Q-100 -76 -118 -71T-149 -51T-162 -11Q-162 3 -152 20T-126 38Q-134 26 -134 9Q-134 -9 -119 -21T-71 -34Q-33 -34 9 -13T94 44T178 123T254 210Q294 260 335 308T414 394T483 454Q493 461 516
477T577 506Q540 505 500 507T421 515Q400 518 378 520T333 522Q272 522 218 506T135 450Q118 426 118 403Q118 387 125 377Q129 373 134 369T142 364Q138 360 132 360Q125 360 119 363T108 371Q98 382 93 396T88 425Q88 453 102 472Q130 510 174 528T285 546Q314
546 348 543T422 533Q506 519 582 519Q620 519 647 523T681 538Q692 538 688 529Q685 516 675 513T653 505Q630 497 601 467T542 393T481 300T425 203T380 118Q370 99 355 74T322 28Q350 49 388 87T467 173T548 270Q585 318 631 372T725 475T821 556T909 594Q914
595 917 595T925 595Q954 595 971 582T990 537Q990 526 984 513T965 496Q969 501 970 511T973 528Q972 545 958 555T914 566Q874 566 828 536T734 459T642 359T561 260Q523 211 478 158T391 61T318 -3Q312 -7 300 -11T276 -15Q266 -15 257 -10T246 9Q248 8 253
7T264 6Q275 6 289 14T313 50Q335 107 362 169T426 293T509 409T618 506Q609 506 599 504T589 501Q561 491 532 473T481 436Q454 413 418 375T343 291T267 198Q230 151 190 103T105 15T15 -51T-82 -76Z" />
<glyph unicode="O" glyph-name="O" horiz-adv-x="534" d="M183 -30Q132 -30 107 -3T81 73Q81 101 90 135Q104 191 132 243T199 342Q113 345 64 371T14 438Q14 465 30 483T70 512T122 528T173 534Q201 534 233 531T302 520Q307 519 306 516T299 514Q278 517 253
518T206 519Q188 519 161 516T108 504T65 478T47 433Q47 402 86 380T210 356Q265 419 330 467T462 543T584 570Q619 570 635 558T651 525Q651 502 632 477Q643 458 643 432Q643 406 633 373Q617 322 581 267T497 158T394 63T285 -5T183 -30ZM279 360Q291 362 304
363T330 368Q385 427 448 465T569 505Q599 505 616 492Q629 509 629 527Q629 542 617 551T576 561Q536 561 485 534T381 461T279 360ZM363 375Q415 387 468 405T562 446Q583 457 600 474Q588 487 563 487Q511 485 460 454T363 375ZM187 -17Q231 -17 281 8T381 75T475
169T552 276T601 382Q606 399 608 413T611 437Q611 442 611 445T610 453Q601 444 586 434Q537 403 472 383T343 353Q315 320 285 279T231 192T193 101T183 17Q173 38 173 67Q173 103 188 143T225 223T271 294T313 348Q301 347 289 346T266 344Q220 287 185 227T135
110Q126 76 126 50Q126 19 141 1T187 -17Z" />
<glyph unicode="P" glyph-name="P" horiz-adv-x="667" d="M324 -35Q288 -35 245 -30T149 -13Q124 -8 100 -3T53 2Q32 2 15 -4T-16 -24Q-23 -24 -23 -12Q-22 3 -9 9T17 16H28Q43 16 58 14T90 10H113Q149 10 172 21T214 53T257 102Q289 141 325 190T399 292Q451
367 515 439T645 556Q622 565 591 570T522 576Q431 576 357 547T228 472T145 376T115 284Q115 250 137 226T205 198Q211 198 211 195Q211 191 202 192Q140 197 110 228T80 303Q80 347 109 397T194 491T331 562T518 590Q563 590 599 585T665 568Q695 587 723 597T779
607Q805 607 829 594T854 543Q848 559 825 573T770 588Q750 588 730 581T688 559Q738 536 760 501T783 426Q783 389 765 352T712 284T632 236T530 217Q510 217 488 219T443 229Q443 229 441 232T439 236Q439 241 447 238Q472 231 500 231Q547 231 589 250T663 300T713
368T731 441Q731 472 716 499T669 545Q627 513 586 464T505 359T430 253Q390 197 348 149T268 66Q237 39 211 21T145 0L156 -2Q181 -6 206 -11T270 -16Q300 -16 333 -9T396 12T444 47T462 99Q462 110 457 122T439 137Q444 140 451 140Q471 140 485 125T499 89Q499
55 482 31T437 -7T379 -28T324 -35Z" />
<glyph unicode="Q" glyph-name="Q" horiz-adv-x="494" d="M471 -209Q430 -209 386 -191T298 -145T215 -90T145 -45T96 -26Q78 -35 52 -40T7 -46Q2 -47 -3 -47T-13 -47Q-56 -47 -69 -34T-77 -14Q-77 -13 -77 -13T-76 -11Q-71 0 -55 4T-20 8Q-9 8 3 7T26 5Q42 3
62 0T109 -14Q151 -10 203 20T311 97T417 202T503 321T554 438Q563 473 563 498Q563 530 549 547T502 565Q458 565 409 541T313 475T223 383T150 279T102 176Q92 145 92 122Q92 97 104 86T135 75Q167 75 208 95T292 152T375 235T444 335T487 442Q489 450 492 450Q494
450 496 444T496 430Q486 384 458 333T391 233T307 145T216 82T129 58Q99 58 81 75T62 128Q62 154 72 185Q87 234 120 288T200 393T298 486T403 553T505 578Q556 578 582 551T608 475Q608 448 599 413Q582 346 545 284T457 168T349 74T233 9T124 -21Q154 -34 191
-53T266 -93T337 -130Q365 -144 403 -156T476 -168Q504 -168 530 -154T557 -105Q557 -86 543 -69T497 -42Q475 -35 448 -31T400 -26Q399 -23 408 -22T421 -20Q438 -20 461 -22T500 -29Q521 -34 543 -47T580 -78T595 -122Q595 -165 559 -187T471 -209Z" />
<glyph unicode="R" glyph-name="R" horiz-adv-x="721" d="M70 -37Q52 -37 32 -31T-2 -10T-17 32Q-17 46 -8 62T17 80Q13 76 12 67T10 51Q11 34 25 22T69 10Q107 10 148 32T232 92T315 176T390 269Q422 314 465 369T558 476T660 562Q636 576 601 584T518 593Q448
593 387 573T276 520T190 448T134 368T114 293Q114 260 134 238T201 211Q207 211 207 208Q207 204 198 205Q138 210 110 239T81 312Q81 357 110 407T196 503T332 577T514 606Q569 606 610 597T680 574Q735 607 787 607Q813 607 837 594T862 543Q856 559 833 573T778
588Q757 588 736 582T695 565Q730 543 746 514T762 454Q762 413 734 374T660 311T559 286Q560 282 560 278T560 269Q560 240 551 195Q549 182 545 154T540 97Q540 63 549 37T586 11Q611 11 637 29T685 72T721 111Q725 111 725 105Q725 96 721 91Q675 37 636 12T550
-14Q527 -14 508 1T489 62Q489 87 498 117T518 179T539 235T548 275Q548 283 546 285Q533 287 527 293T520 306Q520 314 530 314Q552 314 558 292Q588 295 617 312T668 355T704 410T718 466Q718 490 707 512T673 553Q634 528 597 490T525 408T460 322T406 246Q371
198 334 148T256 56T169 -11T70 -37Z" />
<glyph unicode="S" glyph-name="S" horiz-adv-x="509" d="M259 -162Q208 -162 168 -132T116 -45Q55 -28 28 17T1 123Q1 180 22 241T83 354T176 439T295 472Q336 472 360 453T396 403T407 340Q407 330 406 321T403 301Q415 307 427 313T453 324L467 330Q484 371
503 410T546 484Q566 512 594 534T657 556Q688 556 701 543T714 509Q714 481 696 456T648 410T586 370T521 337Q501 277 480 217T427 103T345 8Q307 -23 263 -38T177 -53Q170 -53 164 -53T151 -51Q159 -91 185 -119T264 -148Q280 -148 294 -144T326 -127Q326 -127
326 -127T328 -126Q331 -126 331 -132Q331 -139 320 -146T291 -157T259 -162ZM528 357Q567 376 605 399T668 450T693 508Q693 522 687 532T663 543Q644 543 627 531T596 501T574 468Q561 443 550 415T528 357ZM114 -30Q113 -25 113 -20T113 -11Q113 53 148 107T242
206T375 288Q381 311 381 335Q381 364 373 392T346 439T292 458Q240 458 195 425T115 340T62 227T42 112Q42 61 58 23T114 -30ZM149 -36H153Q186 -36 228 -17T319 52Q369 104 399 171T458 309L397 277Q378 216 333 159T235 64Q228 59 222 59Q217 59 217 62Q217
65 219 67Q263 100 306 151T368 261Q311 228 261 186T180 94T148 -12Q148 -18 148 -24T149 -36Z" />
<glyph unicode="T" glyph-name="T" horiz-adv-x="516" d="M144 -25Q104 -25 78 -14T35 15Q14 42 14 79Q14 118 35 159T94 235Q141 279 202 306T334 333Q356 333 380 330Q392 327 392 325Q392 322 383 322Q376 322 369 323T353 324Q312 324 270 309T189 267T122
211Q100 187 80 153T52 79Q51 75 51 71T51 63Q51 33 70 13T132 -8Q176 -8 214 14T287 70T350 137Q387 179 432 245T526 376Q559 420 598 462T670 527Q627 532 584 538T495 545Q486 545 477 545T460 546Q393 546 334 531T242 473Q233 461 229 449T225 426Q225 412
232 400Q236 396 241 392T250 387Q246 383 239 383Q232 383 226 386T215 394Q205 405 200 419T195 448Q195 476 209 495Q263 569 391 569Q399 569 407 569T424 568Q498 564 570 553T723 542Q767 542 802 546T850 563H852Q856 563 859 561T863 552Q863 535 844 527T805
517Q774 517 744 519T685 525Q660 509 624 469T553 370Q514 303 473 233T384 105T278 11T144 -25Z" />
<glyph unicode="U" glyph-name="U" horiz-adv-x="475" d="M84 -9Q66 -9 54 3T42 40Q42 64 55 94Q78 147 118 207T205 324T295 423Q309 438 335 461T392 505T446 535Q437 534 416 538T380 544Q364 546 336 549T276 552Q237 552 194 545T114 517T50 459Q44 449 40
437T35 411Q35 392 44 377T78 361Q82 361 86 361T94 363Q95 363 95 362Q95 356 84 352Q80 351 76 351T68 350Q31 350 17 372T2 423Q2 460 22 487T74 532T142 558Q183 567 228 567Q248 567 268 566T308 563Q337 561 369 558T434 554Q448 554 460 555T486 558Q491
557 486 546T464 533Q440 514 416 490T372 444T342 410Q335 403 311 374T255 304T189 218T130 130Q110 98 99 71T88 27Q88 10 104 10Q124 10 149 26T202 70Q255 121 301 180T398 296Q419 318 440 339T483 382L491 390Q517 416 547 437T600 458Q590 449 571 431T533
391Q465 310 411 230T340 75Q337 63 337 49Q337 36 341 27T358 18Q367 18 381 25Q410 42 430 62T475 111Q479 111 479 105Q479 96 475 91Q429 37 399 18T334 -2Q307 -2 297 16T286 57Q286 74 290 90T298 120Q309 146 326 175T363 233Q335 201 312 172T265 115T210
57Q179 27 146 9T84 -9Z" />
<glyph unicode="V" glyph-name="V" horiz-adv-x="504" d="M143 -54Q141 -54 141 -53Q141 -49 149 -44Q197 -8 244 47T333 168T403 303T445 435Q447 448 448 460T450 482Q450 522 433 546T379 570Q335 569 289 546T201 483T124 396T64 295T32 195Q30 183 29 173T28
154Q28 121 41 108T78 95Q109 95 149 115T229 171T303 254T358 357T380 472Q380 480 383 480Q386 480 390 473T394 458Q394 408 375 355T322 251T248 162T163 99T78 75Q43 75 20 98T-3 170Q-3 187 0 206Q8 254 34 306T100 408T187 496T284 559T381 583Q438 583
467 551T496 467Q496 457 495 447T492 425Q469 306 402 198T241 7Q271 27 314 68T408 163T506 272Q551 324 603 379T711 483T820 560T918 590Q938 590 957 585T990 565T1003 524Q1003 511 995 497T973 479Q983 493 983 514Q983 558 916 558Q872 558 821 530T715
456T611 358T517 255Q472 203 426 154T338 66T263 5T210 -18Q189 -34 169 -44T143 -54Z" />
<glyph unicode="W" glyph-name="W" horiz-adv-x="666" d="M124 -54Q122 -54 122 -53Q122 -52 130 -44Q178 -8 225 47T314 168T384 303T426 435Q429 448 430 460T431 483Q431 523 414 546T361 570Q317 569 271 546T183 483T106 396T46 295T14 195Q12 183 11 173T10
154Q10 120 23 108T59 95Q91 95 130 115T210 171T285 254T340 357T362 472Q362 480 365 480Q368 480 372 473T376 458Q376 408 357 355T304 251T229 162T144 99T60 75Q25 75 2 98T-22 169Q-22 177 -21 186T-18 206Q-10 254 16 306T82 408T168 496T266 559T363 583Q420
583 449 551T478 466Q478 456 477 446T474 425Q458 342 420 263T326 116Q369 161 413 212T497 312T569 400Q609 449 636 473T684 498Q705 498 705 476Q705 458 694 432T670 383T653 354Q642 334 621 298T574 218T517 130T458 51Q503 92 559 150T669 272Q713 324
766 379T874 483T982 560T1080 590Q1100 590 1120 585T1153 565T1166 524Q1166 511 1158 497T1135 479Q1140 484 1143 495T1146 514Q1146 558 1078 558Q1034 558 983 530T878 456T773 358T679 255Q625 193 570 136T468 38T390 -14Q384 -18 378 -20T367 -23H366Q358
-23 358 -16Q358 -11 360 -6T367 5Q396 46 428 92T494 184Q541 250 585 319T663 455Q669 465 669 473Q669 478 665 478Q659 478 648 470Q635 458 613 431T570 378Q536 337 495 287T408 186T318 91T233 17Q226 10 218 4T202 -10Q180 -28 156 -41T124 -54Z" />
<glyph unicode="X" glyph-name="X" horiz-adv-x="663" d="M-3 -24Q-16 -24 -22 -22Q-3 -17 29 -7T94 18Q170 53 241 109T373 236T474 387Q489 417 496 446T504 499Q504 538 486 555T431 573Q389 573 337 551T232 493T135 411T63 317T36 224Q36 202 50 193T82 183Q120
183 169 203T269 260T360 352T423 474Q426 482 428 482Q434 482 434 467Q434 466 434 464T433 458Q415 398 374 345T280 252T175 188T83 165Q9 165 9 232Q9 280 33 330T98 426T194 508T308 566T430 587Q486 587 512 558T539 482Q539 455 528 422Q579 477 635 520T746
589T846 615Q870 615 892 603T915 558V552Q911 569 888 582T834 596Q792 596 743 568T645 492T550 387T470 267T415 151T394 55Q394 6 430 6Q460 7 496 27T568 80T631 149T672 222Q675 231 675 239Q675 256 658 256Q640 256 608 235T543 180T487 103Q486 102 482
102Q478 102 478 106Q478 109 479 110Q492 135 515 163T566 217T623 259T677 275Q711 275 711 242Q711 212 682 171Q663 144 633 112T566 52T490 6T414 -12Q389 -12 369 4T348 61Q348 94 356 130T381 203Q320 139 250 87T108 2Q77 -13 47 -18T-3 -24Z" />
<glyph unicode="Y" glyph-name="Y" horiz-adv-x="435" d="M-61 -272Q-120 -272 -145 -243T-170 -174Q-170 -137 -152 -97T-106 -27Q-77 4 -38 27T43 60Q46 74 55 94Q78 147 118 207T205 324T295 423Q309 438 335 461T392 505T446 535Q437 534 416 538T380 544Q364
546 336 549T276 552Q237 552 194 545T114 517T50 459Q44 449 40 437T35 411Q35 392 44 377T78 361Q82 361 86 361T94 363Q95 363 95 362Q95 356 84 352Q80 351 76 351T68 350Q31 350 17 372T2 423Q2 460 22 487T74 532T142 558Q183 567 228 567Q248 567 268 566T308
563Q337 561 369 558T434 554Q448 554 460 555T486 558Q491 557 486 546T464 533Q440 514 416 490T372 444T342 410Q335 403 311 374T255 304T189 218T130 130Q119 113 111 97T97 66Q109 66 121 65T145 62Q155 61 155 58Q155 56 149 56Q143 56 137 57T124 58Q108
58 93 55Q90 47 89 40T88 26Q88 16 92 13T104 10Q124 10 149 26T202 70Q244 115 291 168T384 278T470 384Q472 389 474 394T478 405Q485 425 497 425Q504 425 501 415Q482 358 454 285T388 135T303 -14T200 -145T78 -237T-61 -272ZM-70 -256Q-26 -256 13 -235T89
-181T156 -114Q195 -72 239 -13T325 112T403 243T462 363Q426 308 383 252T295 146T210 57Q180 28 148 10T86 -9Q67 -9 54 3T41 40Q7 25 -24 2T-76 -48Q-98 -74 -116 -110T-135 -183Q-136 -214 -121 -235T-70 -256Z" />
<glyph unicode="Z" glyph-name="Z" horiz-adv-x="634" d="M450 -38Q405 -38 364 -25T284 9T205 52T122 90Q104 80 88 73T59 65Q55 64 52 64T46 64Q18 64 8 79T2 102L3 106Q6 118 16 122T39 127Q47 127 55 126T71 123Q83 121 94 119T115 112Q186 154 253 206T400
315Q466 363 542 412T696 510Q642 514 588 522T479 532Q471 533 463 533T447 533Q392 533 348 519T279 460Q266 435 266 412Q266 397 271 387Q274 382 278 378T285 373Q281 369 274 369Q260 369 253 378Q244 390 240 405T236 436Q236 467 247 486Q270 526 307 544T399
563Q407 563 414 563T429 562Q471 560 513 552T600 536T689 528Q727 528 752 536T788 558Q800 558 800 546Q800 527 784 518T750 508H717Q695 490 659 463T583 404T505 343T442 293Q420 275 385 251T308 200T223 148T142 101Q189 80 230 57T315 18T416 1Q435 1
458 4T504 16T540 45T554 96Q554 117 537 136T492 168T429 181Q429 185 434 187T446 190Q490 190 519 174T565 133T584 86Q584 83 584 80T585 73Q585 37 564 12T512 -25T450 -38Z" />
<glyph unicode="[" glyph-name="bracketleft" horiz-adv-x="283" d="M2 -106L365 568H482L470 547H397L57 -86H130L118 -106H2Z" />
<glyph unicode="\" glyph-name="backslash" horiz-adv-x="278" d="M210 -106L134 569H165L241 -106H210Z" />
<glyph unicode="]" glyph-name="bracketright" horiz-adv-x="287" d="M-69 -106L-57 -85H17L357 548H284L295 568H412L49 -106H-69Z" />
<glyph unicode="^" glyph-name="asciicircum" horiz-adv-x="251" d="M60 394Q56 392 53 395T53 400L200 508Q211 516 219 516Q226 516 228 511L257 407Q258 405 258 401Q258 394 253 394Q248 394 245 400L208 484L60 394Z" />
<glyph unicode="_" glyph-name="underscore" horiz-adv-x="342" d="M-3 -43L3 -24H346L338 -43H-3Z" />
<glyph unicode="`" glyph-name="grave" horiz-adv-x="132" d="M148 381Q139 381 116 390T66 413T20 438T0 456Q0 462 6 467T18 473Q22 473 36 464T70 442T108 416T139 394T152 383Q152 381 148 381Z" />
<glyph unicode="a" glyph-name="a" horiz-adv-x="311" d="M18 -1Q-19 -1 -19 41Q-19 65 -5 98T37 169Q57 194 86 222T149 277T220 319T290 336Q305 336 311 332T319 322Q321 318 320 316T316 315Q312 317 300 317Q264 317 215 283T117 193Q83 155 61 119T32 58Q30
50 30 44Q30 30 41 30Q48 30 60 36T91 59Q121 85 150 120T209 191T265 259T318 306Q350 327 362 330T383 334Q378 328 361 306T325 260T294 219Q276 193 256 163T219 107T196 63Q191 46 191 38Q191 22 204 22Q213 22 225 29T251 47Q268 61 283 76T314 111Q318 111
318 105Q318 96 314 91Q301 76 283 58T246 26Q233 15 216 7T183 -1Q160 -1 151 10T142 38Q142 58 151 81T171 126Q158 110 138 88T102 50Q80 30 60 15T18 -1Z" />
<glyph unicode="b" glyph-name="b" horiz-adv-x="314" d="M25 -4Q2 -4 -7 8T-17 38Q-17 56 -10 76T5 114Q23 144 44 174T91 238Q118 274 153 316T228 398T314 470T406 515Q415 518 427 520T453 522Q464 522 474 521T494 515Q502 511 510 505T520 486Q510 495 496
499T462 504Q422 504 388 487T324 441T265 379T209 314Q169 269 134 224T78 142Q98 167 123 195T172 247T212 286Q234 306 255 318T298 333Q334 335 334 291Q334 268 321 235T278 163Q259 138 230 110T166 55T95 13T25 -4ZM34 10Q72 13 114 50T204 140Q239 179
262 215T293 275Q294 278 294 283Q294 291 290 297T277 304Q269 304 256 297T222 273Q205 259 177 232T119 172Q110 162 94 144T60 104T30 61T18 24Q18 17 23 14T34 10Z" />
<glyph unicode="c" glyph-name="c" horiz-adv-x="236" d="M78 -7Q59 -7 39 -2T6 20T-7 67Q-7 101 11 138T59 210T126 273T198 317T266 334Q285 334 292 325T300 302Q300 289 294 277Q285 256 263 235T211 213Q200 213 199 221T199 233Q213 237 237 250T275 292Q278
298 278 303Q278 318 260 318Q237 318 201 290T120 208Q89 172 69 136T48 61Q48 38 57 25T90 11Q121 11 146 26T194 64T236 111Q240 111 240 105Q240 96 236 91Q216 68 193 45T142 8T78 -7Z" />
<glyph unicode="d" glyph-name="d" horiz-adv-x="314" d="M18 -1Q-19 -3 -19 41Q-19 65 -5 98T37 169Q59 197 93 230T167 290T247 330Q258 333 270 334T299 336Q315 336 315 332Q315 327 301 324Q289 321 272 314T241 299Q212 283 180 256T117 193Q83 155 61 119T32
58Q30 50 30 44Q30 30 41 30Q48 30 60 36T91 59Q129 91 167 132T237 217Q261 251 293 289T360 364T428 431T489 479Q520 500 532 503T554 506Q545 499 516 471T446 399T362 306T282 206Q254 168 229 128T196 63Q193 55 192 49T191 38Q191 22 204 22Q213 22 225
29T251 47Q268 61 284 78T314 111Q318 111 318 105Q318 96 314 91Q301 76 283 58T246 26Q233 15 216 7T183 -1Q160 -1 151 10T141 38Q141 55 148 75T165 114Q148 96 128 76T102 50Q80 30 60 16T18 -1Z" />
<glyph unicode="e" glyph-name="e" horiz-adv-x="235" d="M76 -7Q30 -7 11 13T-8 67Q-8 100 10 136T57 206Q74 226 99 248T153 289T210 321T261 334Q273 334 283 329T293 305Q293 280 269 258T215 216Q181 194 144 179T80 156Q65 132 56 107T47 58Q47 32 59 23T89
13Q120 13 145 27T193 65T235 111Q239 111 239 105Q239 96 235 91Q215 68 192 45T140 8T76 -7ZM92 170Q118 179 153 195T216 230Q222 234 237 246T265 274T278 302Q278 318 262 318Q245 318 224 303T189 277Q165 255 139 228T92 170Z" />
<glyph unicode="f" glyph-name="f" horiz-adv-x="191" d="M-317 -242Q-339 -242 -357 -236Q-365 -232 -373 -225T-385 -207Q-374 -216 -360 -220T-326 -224Q-273 -224 -227 -198T-139 -127T-62 -30T6 76T66 174Q85 204 105 238T150 306H94L105 320H160Q207 386
263 442T390 519Q407 525 436 525Q448 525 460 524T482 518Q491 514 499 507T511 489Q490 506 451 506Q399 506 356 477T278 406T215 320H292L281 306H206Q184 273 163 237T110 152Q89 119 59 75T-9 -18T-88 -110T-176 -187T-270 -235Q-289 -242 -317 -242Z" />
<glyph unicode="g" glyph-name="g" horiz-adv-x="276" d="M-130 -246Q-160 -246 -171 -242T-182 -234Q-182 -230 -175 -230Q-170 -230 -165 -230T-156 -231Q-120 -231 -84 -209T-14 -151T51 -70T107 17Q116 33 130 58T161 114Q142 92 126 75T102 50Q80 30 60 16T18
-1Q-19 -3 -19 41Q-19 65 -5 98T37 169Q57 194 86 222T149 277T220 319T290 336Q305 336 311 332T319 322Q320 318 319 315Q348 334 373 334Q380 334 382 332Q340 306 308 266T247 175T192 72T134 -33T65 -129Q20 -181 -32 -213T-130 -246ZM41 30Q48 30 60 36T91
59Q123 87 156 127T220 208Q243 240 267 269T318 314Q316 314 316 315Q312 317 300 317Q264 317 215 283T117 193Q83 155 61 119T32 58Q30 50 30 44Q30 30 41 30Z" />
<glyph unicode="h" glyph-name="h" horiz-adv-x="294" d="M151 -4Q133 -4 125 5T117 28Q117 40 123 62Q136 98 161 135T215 207T272 270T315 317Q300 317 283 309T247 290Q204 260 161 219T80 135T16 56T-17 0Q-33 0 -33 20Q-33 37 -23 62T2 114Q36 171 85 237T188
362Q235 414 290 456T405 515Q414 518 426 520T451 522Q475 522 492 515Q500 511 508 505T519 486Q508 495 494 499T460 504Q421 504 381 482T304 427T240 364T197 314Q158 266 129 225T79 154Q119 198 166 242T254 313Q267 322 281 328T310 334Q337 334 337 313Q337
297 318 275Q283 235 247 187T186 90Q182 83 173 63T163 28Q163 16 174 16Q197 16 230 45T294 111Q298 111 298 105Q298 96 294 91Q280 76 259 54T210 14T151 -4Z" />
<glyph unicode="i" glyph-name="i" horiz-adv-x="168" d="M249 376Q229 376 229 392Q229 397 232 403Q237 415 249 424T274 434Q293 434 293 418Q293 403 279 390T249 376ZM32 -2Q5 -2 -6 12T-18 49Q-18 78 -1 111T43 178T96 241T143 290Q162 309 182 318T216
330T231 334Q209 309 171 263T96 165Q93 161 82 145T58 108T35 67T25 35Q25 16 45 16Q60 16 77 27T113 54T145 85T168 111Q172 111 172 105Q172 96 168 91Q130 47 100 23T32 -2Z" />
<glyph unicode="j" glyph-name="j" horiz-adv-x="173" d="M256 376H254Q236 376 236 392Q236 407 251 420T283 434Q301 434 301 417Q301 402 287 390T256 376ZM-303 -243Q-317 -243 -331 -242T-357 -236Q-365 -232 -373 -225T-385 -207Q-374 -216 -360 -220T-326
-224Q-273 -224 -227 -198T-139 -127T-62 -30T6 76T66 174L115 254Q138 290 156 305T192 324T230 330Q209 307 177 257T110 152Q89 119 61 75T-3 -18T-78 -111T-162 -190T-254 -238Q-271 -243 -303 -243Z" />
<glyph unicode="k" glyph-name="k" horiz-adv-x="294" d="M-16 -2Q-33 -1 -33 20Q-33 37 -23 62T2 114Q36 171 85 237T188 362Q235 414 290 456T405 515Q414 518 426 520T451 522Q475 522 492 515Q500 511 508 505T519 486Q508 495 494 499T460 504Q421 504 381
482T304 427T240 364T197 314Q152 260 120 214T69 139Q92 162 119 188T179 242Q201 260 228 281T285 319T346 335Q360 335 366 329T372 313Q372 301 363 290Q356 298 348 300T328 303Q302 303 275 290T235 267L225 259Q218 243 207 215T186 155T168 93T161 44Q161
30 165 25T176 19Q191 19 209 31T245 59T276 91T294 111Q298 111 298 105Q298 96 294 91Q280 76 259 54T213 16T158 -1Q135 -1 127 14T118 55Q118 77 128 108T152 169T175 219Q120 173 76 126T6 41Q-1 29 -6 19T-14 2L-16 -2Z" />
<glyph unicode="l" glyph-name="l" horiz-adv-x="164" d="M28 -3Q-22 -3 -22 43Q-22 58 -15 78T11 131Q37 176 84 237T186 356Q233 409 288 453T404 515Q413 518 425 520T450 522Q474 522 491 515Q499 511 507 505T518 486Q507 495 493 499T459 504Q407 504 359
470T264 383T164 269Q144 246 120 212T75 144T40 86Q33 75 30 63T26 42Q26 18 44 18Q63 18 86 36T131 76T164 111Q168 111 168 105Q168 96 164 91Q124 45 91 21T28 -3Z" />
<glyph unicode="m" glyph-name="m" horiz-adv-x="429" d="M293 -1Q272 -1 263 10T254 40Q254 67 273 101T322 174T386 249T450 317Q435 317 418 309T382 290Q354 271 321 240T254 174T192 105Q176 80 163 58T145 20Q125 28 125 49Q125 65 134 86Q152 126 181 166T243
244T306 318Q288 318 261 303T208 267T165 230Q144 208 116 175T60 110T15 54Q-3 30 -9 17T-18 1Q-34 1 -34 20Q-34 40 -22 68T0 112Q26 156 59 204T122 290Q137 310 154 319T183 331T195 334Q189 325 171 297T128 232T79 154Q119 203 163 248T247 316Q280 334
309 334Q332 334 332 318Q332 303 316 282Q309 273 297 256T276 225T266 211L260 202Q292 235 325 264T389 313Q402 322 416 328T445 334Q472 334 472 313Q472 297 453 275Q430 248 403 215T352 148T312 85T296 38Q296 28 301 24T311 19Q326 19 344 31T380 59T411
91T429 111Q433 111 433 105Q433 96 429 91Q415 76 392 54T343 16T293 -1Z" />
<glyph unicode="n" glyph-name="n" horiz-adv-x="294" d="M158 -1Q137 -1 128 10T119 40Q119 67 138 101T187 174T251 249T315 317Q300 317 283 309T247 290Q220 272 188 242T124 178T63 111Q40 84 27 66T4 34T-17 1Q-33 1 -33 20Q-33 40 -21 68T1 112Q27 156
60 204T123 290Q138 310 155 319T184 331T196 334Q190 325 171 296T127 228T76 149Q117 196 164 240T254 313Q267 322 281 328T310 334Q337 334 337 313Q337 297 318 275Q295 248 268 215T217 148T177 85T161 38Q161 28 166 24T176 19Q191 19 209 31T245 59T276
91T294 111Q298 111 298 105Q298 96 294 91Q280 76 257 54T208 16T158 -1Z" />
<glyph unicode="o" glyph-name="o" horiz-adv-x="258" d="M39 -5Q10 -5 -2 9T-15 46Q-15 74 1 112T46 189T109 261T180 315T251 336Q276 336 287 323T298 289Q298 261 282 223T239 145T178 71T108 16T39 -5ZM51 14Q72 14 101 35T162 91T219 163T262 236T279 293Q279
317 256 317Q237 317 209 295T150 237T92 163T49 89T32 34Q32 14 51 14Z" />
<glyph unicode="p" glyph-name="p" horiz-adv-x="377" d="M-277 -242Q-304 -242 -322 -236Q-330 -232 -338 -225T-350 -207Q-339 -216 -325 -220T-291 -224Q-233 -224 -183 -192T-88 -109T-6 1Q55 92 110 185T225 366Q239 365 239 346Q239 321 214 271T145 152Q141
147 138 141T131 129Q161 164 193 200T258 267T320 317T375 336Q407 336 407 297Q407 273 392 237T346 161Q327 136 299 108T237 54T168 12T100 -4Q73 -4 68 6Q66 9 67 11T70 13Q70 13 75 12T87 11Q111 11 142 28T207 74T273 139Q307 177 330 214T360 276Q362 284
362 289Q362 297 359 302T345 306Q320 300 285 271T212 202T140 122T79 51Q42 -5 -5 -64T-107 -170T-222 -235Q-241 -242 -277 -242Z" />
<glyph unicode="q" glyph-name="q" horiz-adv-x="311" d="M-30 -278Q-44 -270 -44 -248Q-44 -220 -24 -178T26 -86T88 10T143 96Q122 68 102 50Q80 30 60 16T18 -1Q-19 -3 -19 41Q-19 65 -5 98T37 169Q57 194 86 222T149 277T220 319T290 336Q305 336 311 332T319
322Q321 318 320 316T316 315Q312 317 300 317Q264 317 215 283T117 193Q83 155 61 119T32 58Q30 50 30 44Q30 30 41 30Q48 30 60 36T91 59Q121 85 155 122T225 198T294 270T354 316Q387 334 400 336T421 339Q405 329 384 309T330 251T250 154T135 3Q95 -50 62
-106T4 -208T-30 -278Z" />
<glyph unicode="r" glyph-name="r" horiz-adv-x="247" d="M120 -2Q95 -2 85 11T74 43Q74 55 77 67Q83 97 107 130T164 196T231 256T293 301Q281 299 262 299Q240 299 216 301T183 310Q179 303 164 284T126 237T79 182T34 130T0 91Q-13 76 -35 56T-80 19T-118 3Q-125
3 -126 6T-128 10Q-112 10 -81 32T0 111Q59 179 111 257T206 421H207Q220 421 220 396Q220 373 204 342Q200 335 192 323Q212 319 232 318T269 316Q283 316 295 317T314 320Q323 320 323 317T322 311Q318 307 306 293T278 263T249 232T230 210Q199 173 169 129T126
50Q122 41 122 33Q122 19 135 19Q149 19 170 35T212 74T247 111Q251 111 251 105Q251 96 247 91Q201 37 173 18T120 -2Z" />
<glyph unicode="s" glyph-name="s" horiz-adv-x="254" d="M83 -7Q63 -7 45 -3T12 11Q1 19 -6 33T-14 69Q-14 95 -2 109T25 123Q36 137 55 162T97 219T146 281T193 338Q207 352 222 368T257 395T299 407Q316 407 323 399T331 380Q331 374 328 369Q317 371 297 366T253
346Q227 330 200 306Q199 294 198 270T194 215T188 154T176 100Q171 84 160 65T131 29T85 6Q121 6 145 17T185 42T212 66Q220 74 234 89T254 111Q258 111 258 105Q258 96 254 91Q212 46 184 25Q159 6 133 0T83 -7ZM48 12Q65 12 79 25T106 57T125 92Q136 116 148
153T171 228T189 295Q161 268 134 236T83 175T45 127Q32 110 25 91T18 55Q18 36 26 24T48 12Z" />
<glyph unicode="t" glyph-name="t" horiz-adv-x="165" d="M23 -4Q-2 -4 -12 8T-22 39Q-22 72 2 114Q16 138 40 169T96 236T158 306H91L102 320H171Q199 349 223 374T264 416Q308 460 345 483T405 506Q389 492 359 462T292 395T220 320H289L278 306H208Q189 284
173 265T144 229Q97 165 68 124T30 62Q23 45 23 34Q23 15 41 15Q56 15 73 25Q98 39 123 65T165 111Q169 111 169 105Q169 96 165 91Q127 47 94 22T23 -4Z" />
<glyph unicode="u" glyph-name="u" horiz-adv-x="314" d="M22 0Q-2 0 -12 11T-22 39Q-22 56 -15 76T4 117Q23 149 47 181T97 242T143 290Q162 309 182 318T216 330T231 334Q209 309 172 263T96 165Q92 160 82 144T59 109T39 71T30 41Q30 30 42 31Q55 32 76 50T121
94T166 145T202 188Q213 201 229 220T262 261T293 298Q309 316 327 323T358 332T372 334Q364 324 341 295T288 227T233 145T193 64Q186 47 186 36Q186 26 191 23T202 19Q216 19 233 31T267 59T297 91T314 111Q318 111 318 105Q318 96 314 91Q299 73 278 52T233
16T186 0Q161 0 151 12T141 42Q141 59 148 79T165 118Q153 106 137 87T100 47T60 14T22 0Z" />
<glyph unicode="v" glyph-name="v" horiz-adv-x="274" d="M22 0Q-2 0 -12 10T-22 37Q-22 54 -14 74T5 114Q24 146 52 178T111 237T165 282Q187 301 211 312Q198 311 186 310T162 308Q141 307 124 304T91 291Q96 308 112 319T146 332Q163 334 188 332T234 330Q240
330 248 331T262 336Q262 326 247 319Q241 316 235 313T225 307Q215 300 206 291T186 272Q109 197 52 96Q43 80 37 66T30 42Q30 31 42 31Q60 31 87 48T146 94T209 160Q220 173 237 198T270 247T291 280Q314 319 336 327T378 334Q371 324 353 301T310 249T261 192T217
141T189 110Q163 83 136 58T80 16T22 0Z" />
<glyph unicode="w" glyph-name="w" horiz-adv-x="438" d="M22 0Q-2 0 -12 10T-22 37Q-22 54 -14 74T5 114Q24 146 52 178T111 237T165 282Q187 301 211 312Q198 311 186 310T162 308Q141 307 124 304T91 291Q96 308 112 319T146 332Q163 334 188 332T234 330Q240
330 248 331T262 336Q262 326 247 319Q241 316 235 313T225 307Q215 300 206 291T186 272Q109 197 52 96Q43 80 37 66T30 41Q30 30 42 31Q55 33 90 63Q110 80 135 105T186 159L246 222Q265 242 281 260T312 290Q332 308 353 319T396 330Q384 323 365 305T330 268Q305
240 279 204T231 130T196 53Q193 46 193 41Q193 30 205 31Q223 31 250 48T309 94T372 160Q383 173 400 198T433 247T454 280Q477 319 500 327T542 334Q535 324 516 301T473 249T424 192T380 141T352 110Q326 83 299 58T243 16T185 0Q161 0 152 10T142 37Q142 53
149 73T168 114L174 125Q154 102 128 76T88 38Q69 21 52 11T22 0Z" />
<glyph unicode="x" glyph-name="x" horiz-adv-x="321" d="M-10 -16Q-22 -16 -29 -9T-37 7Q-37 18 -28 25Q-23 20 -9 20Q4 20 19 24T45 36Q78 60 111 102T168 184Q186 222 197 247T209 286Q209 295 202 298Q196 300 193 300Q178 300 160 286T123 248T85 201L0 89Q-15
73 -35 52T-78 16T-128 0Q-130 0 -130 1Q-130 1 -127 3T-118 8Q-83 25 -54 52T0 111Q47 171 87 227T170 315Q195 333 221 333Q237 333 248 325T259 297Q259 275 242 242Q239 238 237 233T231 222Q253 246 282 273T342 321T394 341Q405 341 410 335T416 320Q416
314 413 308T402 299Q395 306 383 306Q373 306 361 302T335 291Q301 273 268 240T208 171Q195 140 185 108T174 51Q174 20 200 20Q214 20 233 30Q258 44 279 66T321 111Q325 111 325 105Q325 96 321 91Q277 40 246 20T178 -1Q162 -1 145 12T127 58Q127 69 129 81T136
108Q114 77 87 47T34 -1Q12 -16 -10 -16Z" />
<glyph unicode="y" glyph-name="y" horiz-adv-x="283" d="M-126 -246Q-155 -246 -166 -242T-178 -234Q-178 -230 -171 -230Q-166 -230 -161 -230T-151 -231Q-115 -231 -79 -209T-9 -151T56 -70T112 17L189 150Q176 135 156 110T111 60T64 18T21 0Q-3 0 -13 11T-23
39Q-23 56 -16 76T3 116Q22 148 46 180T96 241T142 290Q161 309 181 318T215 330T230 334Q208 309 171 263T95 165Q91 160 81 144T58 109T38 71T29 41Q29 30 41 31Q54 32 75 50T120 94T165 145T201 188Q215 204 234 228T275 276T321 317T371 334Q380 334 382 332Q346
315 315 277T256 188T200 81T139 -30T69 -129Q24 -181 -27 -213T-126 -246Z" />
<glyph unicode="z" glyph-name="z" horiz-adv-x="252" d="M-230 -366Q-258 -366 -269 -354T-280 -322Q-280 -301 -271 -278T-249 -234T-230 -204Q-203 -168 -168 -133T-92 -70T-12 -30Q-6 -30 -6 -33Q-7 -34 -8 -37T-11 -41Q-39 -50 -76 -76T-151 -139T-216 -214Q-235
-240 -246 -266T-258 -314Q-258 -329 -251 -339T-226 -349Q-216 -349 -207 -345Q-182 -336 -149 -310T-78 -246T-5 -164T60 -75T106 11T124 83Q124 101 117 114Q109 112 100 102T79 84T55 75Q36 75 36 93Q36 106 46 114T71 126T96 132L168 206Q203 243 237 271T308
317Q289 317 259 313T195 300T132 274T88 231Q87 226 82 221T74 216Q71 216 71 221Q73 245 89 273T128 322T174 342Q199 342 228 339T286 335Q309 335 329 337T359 343Q357 336 350 329T330 319Q309 307 282 284T226 232T168 177T115 133Q144 129 157 108T170 58Q170
18 150 -29T96 -123T20 -214T-68 -292T-155 -346T-230 -366Z" />
<glyph unicode="{" glyph-name="braceleft" horiz-adv-x="251" d="M116 -93Q96 -93 74 -90T37 -78T22 -49Q22 -39 28 -26Q41 2 62 32T104 93T138 152Q147 173 147 187Q147 203 134 208T98 215L105 223Q139 226 162 234T204 260T247 311Q273 348 295 385T348 451T433
492Q445 495 466 496T504 498L501 490Q455 490 426 475T376 436T336 381T293 318Q275 294 249 272T195 235T139 220H136Q157 218 169 207T182 178Q182 166 174 147Q162 119 142 89T101 29T67 -30Q61 -43 61 -52Q61 -69 74 -75T103 -81T126 -82L116 -93Z" />
<glyph unicode="|" glyph-name="bar" horiz-adv-x="170" d="M28 -28L234 539H255L49 -28H28Z" />
<glyph unicode="}" glyph-name="braceright" horiz-adv-x="330" d="M-77 -93L-73 -85Q-28 -85 1 -71T51 -31T91 25T134 88Q152 112 178 134T232 171T288 186H291Q269 188 257 198T244 228Q244 242 251 257Q265 286 285 316T326 376T358 434Q364 449 364 458Q364
474 351 480T323 486T301 487L310 498Q330 498 352 495T389 483T405 455Q405 446 399 432Q386 403 365 373T323 312T288 253Q278 232 278 217Q278 201 291 196T328 190L321 182Q288 179 265 171T222 145T178 94Q153 57 131 20T78 -45T-6 -87Q-18 -90 -39 -91T-77
-93Z" />
<glyph unicode="~" glyph-name="asciitilde" horiz-adv-x="327" d="M147 443Q146 444 146 446Q146 450 148 454Q156 468 169 478T199 488Q217 488 228 477T255 466Q272 466 282 475T301 494Q301 494 301 494T302 492Q302 485 298 479Q293 469 280 457T246 444Q231
444 220 455T192 466Q179 466 167 459T147 443Z" />
<glyph unicode="&#xa0;" glyph-name="uni00A0" horiz-adv-x="160" />
<glyph unicode="&#xa1;" glyph-name="exclamdown" horiz-adv-x="278" d="M250 298Q230 298 230 315Q230 331 245 344T276 357Q294 357 294 341Q294 327 280 313T250 298ZM-41 -125Q-62 -125 -58 -103L215 250H228L13 -93Q3 -107 -12 -116T-41 -125Z" />
<glyph unicode="&#xa2;" glyph-name="cent" horiz-adv-x="320" d="M70 -18L123 67Q98 74 88 92T77 135Q77 169 95 206T143 278T210 341T282 385T350 402H351L386 453H406L368 397Q378 389 378 370Q378 357 374 352T365 346Q362 346 360 349T360 356Q362 359 362
362T362 367Q362 376 357 381L156 84Q158 83 161 83T168 83Q208 83 241 106Q264 121 285 143T324 184Q326 184 326 181Q326 177 324 171T319 160Q304 141 286 123T246 90Q228 78 206 71T157 63Q153 63 149 63T142 64L91 -18H70ZM141 94L340 386Q318 385 283 356T203
276Q175 241 154 203T132 126Q132 105 141 94Z" />
<glyph unicode="&#xa3;" glyph-name="sterling" horiz-adv-x="468" d="M313 -43Q273 -43 232 -30T157 -7Q153 -5 138 -2T105 6T72 15Q66 14 57 13T38 11Q30 11 23 12T10 16Q3 19 3 25Q3 29 8 34Q10 36 18 36Q25 36 32 35T41 33L73 26Q83 30 94 41T116 64T132 82Q146
100 162 122T201 175H121L132 188H211Q217 196 222 204T234 221Q263 263 300 302T378 367T464 393Q481 393 499 387T518 354Q514 365 499 366T465 368Q432 368 397 341T328 273T263 188H335L324 175H253Q237 152 213 120T161 61T108 23H110L162 12Q193 5 228 -1T298
-7Q319 -7 338 -4T373 8Q394 19 407 36T420 71Q420 75 420 78T418 84Q417 87 417 90Q417 93 419 93Q426 93 428 84Q432 74 434 65T437 44Q437 28 430 13T407 -15Q394 -26 378 -32T345 -40Q330 -43 313 -43Z" />
<glyph unicode="&#xa4;" glyph-name="currency" horiz-adv-x="456" d="M24 122Q21 120 20 122T21 126L115 197Q110 209 110 223Q110 252 129 284T177 336L143 409Q142 411 144 412T148 412L192 347Q212 359 232 366T273 373Q313 373 330 348L431 414Q434 416 435
414T434 410L337 337Q343 324 343 307Q343 275 323 247T279 198L312 127Q313 125 311 124T306 123L262 187Q222 160 180 160Q142 160 122 186L24 122ZM195 194Q225 194 255 215T299 266Q305 281 305 295Q305 315 293 327T258 340Q234 340 209 325T166 287T148 238Q148
219 160 207T195 194Z" />
<glyph unicode="&#xa5;" glyph-name="yen" horiz-adv-x="365" d="M0 0L9 11Q35 11 57 16T92 39Q103 52 112 64T129 91L137 106H41L55 124H146Q157 146 166 168H69L83 186H172Q179 206 180 218Q183 234 184 249T185 280Q185 291 185 302T183 324Q178 363 173 370Q167
378 136 378H123L132 390Q137 389 180 387Q191 386 204 386T231 386Q234 386 234 366Q234 358 234 346T232 317Q231 284 228 255T219 199H222Q247 224 276 251T340 310Q374 339 395 357T426 382Q429 385 442 385L523 388L510 376Q468 379 434 356Q422 347 400 330T353
291T304 249T265 216T248 200Q242 193 235 186H314L300 168H221Q213 157 205 146T190 124H286L272 106H180Q175 99 171 91Q165 80 159 68T145 41Q143 35 143 32Q143 20 160 16T196 11L184 0H0Z" />
<glyph unicode="&#xa6;" glyph-name="brokenbar" horiz-adv-x="170" d="M147 299L234 539H255L168 299H147ZM28 -28L118 221H139L49 -28H28Z" />
<glyph unicode="&#xa7;" glyph-name="section" horiz-adv-x="666" d="M135 -178Q62 -178 25 -143T-12 -55Q-12 -21 3 17T49 94Q78 130 123 162T218 213T310 233Q340 233 355 220T370 184Q370 150 345 117T281 56T197 13T112 -4Q110 -4 110 -1Q110 1 111 4T115
9Q150 9 190 26T268 70T329 127T353 185Q353 219 310 219Q267 219 226 200T148 149T84 79T41 4T25 -65Q25 -107 52 -135T137 -163Q199 -163 255 -137T354 -68T423 29T449 138Q449 169 440 200T421 266T411 337Q411 374 427 409T471 471T537 507Q554 560 595 597T692
634Q712 634 727 626T743 597V591Q741 578 732 572T714 565Q710 565 709 566Q714 576 714 590Q714 618 682 618Q645 618 622 596T589 543T578 490Q578 452 590 417T614 346T626 268Q626 189 582 119T466 8Q431 -43 380 -85T266 -153T135 -178ZM486 51Q516 74 534
108T560 180T569 254Q569 268 568 280T565 302Q558 338 544 377T530 460Q530 476 533 491Q502 478 488 457T469 412T465 367Q465 326 475 292T496 223T506 147Q506 97 486 51Z" />
<glyph unicode="&#xa8;" glyph-name="dieresis" horiz-adv-x="181" d="M133 379Q123 379 117 385T110 402Q110 416 121 426T145 437Q156 437 162 431T169 414Q169 401 158 390T133 379ZM36 379Q26 379 19 385T12 402Q12 416 23 426T48 437Q59 437 65 431T71 414Q71
401 60 390T36 379Z" />
<glyph unicode="&#xa9;" glyph-name="copyright" horiz-adv-x="666" d="M343 -5Q273 -5 219 27T133 113T101 235Q101 244 101 253T103 271Q110 328 138 378T208 466T304 525T414 547Q484 547 539 515T625 428T657 305Q657 297 657 289T655 271Q648 214 620 164T549
76T453 17T343 -5ZM346 23Q401 23 451 45T542 106T605 195T628 300Q628 361 600 410T523 489T411 518Q360 518 313 499T227 445T163 367T131 271Q130 264 130 256T129 240Q129 180 157 131T234 52T346 23ZM337 116Q285 116 260 143T235 211Q235 230 240 250T256
290Q271 319 294 347T351 396T426 418Q458 418 482 406Q494 399 499 389T504 368Q504 351 495 334T473 305T446 294Q439 294 432 298T425 310Q425 319 437 330Q449 342 456 357T464 384Q464 398 454 402Q447 405 438 405Q407 405 376 379Q355 362 335 338Q316 315
299 277T281 203Q281 181 290 164Q296 154 310 145T344 134Q373 132 399 142T444 169Q453 177 458 179T466 182Q469 182 469 179Q469 172 455 160Q431 139 402 128T337 116Z" />
<glyph unicode="&#xaa;" glyph-name="ordfeminine" horiz-adv-x="314" d="M80 365Q57 365 57 393Q57 408 65 428T90 471Q106 491 131 514T187 555T244 572Q264 572 264 560Q264 555 258 555Q256 555 254 555T246 556Q227 555 199 535T142 483Q118 456 104 432T90
395Q90 388 95 388Q106 388 123 404T159 442T190 479Q208 502 225 522T257 552Q279 566 287 568T299 570Q301 570 301 569T301 567Q298 564 288 551T267 523T248 498Q237 483 223 462T197 422T186 392Q186 383 193 383Q203 383 220 398Q223 401 232 411T251 430T261
440Q264 440 264 435Q264 426 260 422Q241 401 221 383T180 365Q165 365 159 372T153 391Q153 408 161 427Q144 406 121 386T80 365Z" />
<glyph unicode="&#xab;" glyph-name="guillemotleft" horiz-adv-x="410" d="M199 21Q194 21 188 28L87 132Q84 137 84 143Q84 157 100 170L263 312Q264 313 264 313T265 313Q269 313 270 308T268 298L122 144L200 40Q204 33 204 28Q204 21 199 21ZM340 21Q336
21 330 28L229 132Q226 137 226 143Q226 157 242 170L405 312Q406 313 407 313Q410 313 411 308T410 298L264 144L342 40Q345 34 345 28Q345 21 340 21Z" />
<glyph unicode="&#xac;" glyph-name="logicalnot" horiz-adv-x="550" d="M402 10Q397 10 393 14T389 25L417 156H62Q58 156 53 158T48 165Q48 170 55 179T69 188H455L420 25Q418 10 402 10Z" />
<glyph unicode="&#xad;" glyph-name="uni00AD" horiz-adv-x="187" d="M101 210L118 232H218L201 210H101Z" />
<glyph unicode="&#xae;" glyph-name="registered" horiz-adv-x="461" d="M245 257Q205 257 174 275T124 325T105 396Q105 444 130 484T197 549T286 574Q327 574 358 556T408 506T426 436Q426 388 400 347T333 282T245 257ZM247 278Q288 278 323 299T381 357T403
434Q403 484 369 518T283 553Q243 553 207 532T149 475T127 398Q127 348 161 313T247 278ZM164 337Q157 337 158 338T163 340Q172 342 184 361T211 406T236 457T254 491Q256 496 261 499T271 505Q238 505 213 488T178 440Q177 435 175 435Q174 435 174 439Q174
447 177 454Q191 492 216 502T270 513Q280 513 290 513T310 511Q330 510 340 501T350 479Q350 462 333 445T286 422H265Q276 398 293 374T332 350Q343 350 354 358Q347 350 337 341Q329 337 319 337Q294 337 275 362T245 418Q245 418 248 422T254 426Q295 426 312
443T329 476Q329 487 323 494T306 502Q291 502 284 497T270 480Q253 455 239 427T210 368Q202 350 199 344T184 337H164Z" />
<glyph unicode="&#xaf;" glyph-name="overscore" horiz-adv-x="193" d="M3 389Q0 389 0 393Q0 398 6 407T18 416H191Q193 416 193 413Q193 407 189 398T177 389H3Z" />
<glyph unicode="&#xb0;" glyph-name="degree" horiz-adv-x="315" d="M210 418Q173 418 173 448Q173 453 174 458T178 470Q187 491 210 510T257 530Q274 530 284 522T294 498Q294 480 281 462T249 431T210 418ZM210 434Q224 434 238 443T263 467T274 494Q274 510
257 510Q242 510 224 497T198 467Q193 460 193 451Q193 434 210 434Z" />
<glyph unicode="&#xb1;" glyph-name="plusminus" horiz-adv-x="416" d="M162 114L239 222H130L146 245H256L321 336H354L289 245H401L384 222H272L195 114H162ZM11 0L28 22H282L266 0H11Z" />
<glyph unicode="&#xb2;" glyph-name="uni00B2" horiz-adv-x="250" d="M161 296Q152 296 143 297T123 301Q121 302 120 302T116 303Q107 305 98 306T78 308Q70 308 61 306T45 302V302H42Q33 302 33 310Q33 318 47 322L52 325L76 340L121 365Q137 376 157 391T193
423Q204 434 220 453T248 493T260 532Q260 552 242 552Q217 552 195 536T161 501L160 499Q158 498 156 496T150 494Q142 494 142 501Q162 540 195 556T253 572Q304 572 304 534Q304 512 290 491T258 452T227 423L219 415Q188 388 153 365T83 323Q91 324 98 324T113
324Q139 324 164 327T210 352L212 355Q223 367 228 367Q234 367 232 358Q225 320 195 304Q187 300 178 298T161 296Z" />
<glyph unicode="&#xb3;" glyph-name="uni00B3" horiz-adv-x="248" d="M85 292Q23 292 23 326Q23 345 38 362T78 390T131 401Q158 401 155 390H142Q125 390 104 382T67 359T52 329Q52 306 84 306Q124 306 159 334T208 406Q210 411 211 417T212 428Q212 444 202
444Q202 444 201 443T194 438Q189 435 183 433T170 430Q152 430 152 443Q152 455 185 456Q190 456 194 456T203 458Q226 467 245 487T265 530Q265 550 247 550Q222 550 200 534T166 499L164 497Q162 492 155 492Q148 492 148 499Q168 539 200 554T258 570Q305 570
305 534Q305 516 291 499T257 470T222 451Q252 446 252 415Q252 406 249 397Q238 369 211 345T150 307T85 292Z" />
<glyph unicode="&#xb4;" glyph-name="acute" horiz-adv-x="132" d="M4 381Q0 381 0 383Q0 384 12 393T43 416T81 442T115 464T134 473Q139 473 145 468T152 456Q152 450 133 438T87 413T37 391T4 381Z" />
<glyph unicode="&#xb5;" glyph-name="uni00B5" horiz-adv-x="314" d="M-151 -262Q-166 -254 -166 -227Q-166 -198 -149 -153T-106 -61Q-76 -3 -35 61T52 186T143 290Q161 308 181 317T215 330Q220 332 228 334H231Q209 309 172 263T96 165Q92 160 82 144T59 109T39
71T30 41Q30 30 42 31Q55 32 76 50T121 94T166 145T202 188Q213 201 229 220T262 261T293 298Q309 316 327 323T358 332T372 334Q364 324 341 295T288 227T233 145T193 64Q186 47 186 36Q186 26 191 23T202 19Q216 19 234 32T269 62T300 95T318 116Q321 116 321
113Q321 109 318 103T314 92Q299 74 278 53T233 16T186 0Q161 0 151 12T141 42Q141 59 148 79T165 118Q153 106 137 87T100 47T60 14T22 0Q-2 0 -12 10Q-14 6 -17 2T-23 -7Q-52 -54 -79 -105T-125 -198T-151 -262Z" />
<glyph unicode="&#xb6;" glyph-name="paragraph" horiz-adv-x="618" d="M11 0L323 399Q296 399 274 418T251 466Q251 478 256 491T272 518Q301 553 361 575T501 597H618L604 578H569L114 0H89L544 578H490L35 0H11Z" />
<glyph unicode="&#xb7;" glyph-name="middot" horiz-adv-x="188" d="M136 185Q118 185 118 201Q118 217 133 230T165 243Q183 243 183 226Q183 210 168 198T136 185Z" />
<glyph unicode="&#xb8;" glyph-name="cedilla" horiz-adv-x="136" d="M56 -177Q37 -177 22 -169T0 -142Q0 -137 5 -137Q11 -137 13 -143Q21 -153 31 -156T52 -160Q76 -160 88 -145T100 -114Q100 -100 92 -90T68 -80Q55 -80 48 -83T35 -86Q31 -86 28 -84T24 -77Q24
-73 27 -70Q29 -68 38 -57T60 -32T81 -8T91 2Q93 2 98 2T103 0Q102 -1 94 -10T78 -29T64 -48T63 -59Q67 -58 76 -58Q96 -58 116 -71T136 -108Q136 -141 110 -159T56 -177Z" />
<glyph unicode="&#xb9;" glyph-name="uni00B9" horiz-adv-x="198" d="M42 284Q56 306 75 335T114 395T153 453T185 498Q178 494 172 489T159 480Q151 475 138 471T115 465T105 468L106 470Q131 483 158 502T213 543L229 556Q250 569 261 570Q269 570 266 562T251
538Q216 489 189 446T137 361L120 333Q104 308 90 298T50 284H42Z" />
<glyph unicode="&#xba;" glyph-name="ordmasculine" horiz-adv-x="258" d="M79 363Q60 363 52 372T43 395Q43 418 58 448T98 506T150 553T204 572Q235 572 235 541Q235 519 221 489T183 430T132 382T79 363ZM85 379Q100 379 123 398T168 446T205 502T220 544Q220
556 209 556Q195 556 173 536T128 488T90 432T75 390Q75 379 85 379Z" />
<glyph unicode="&#xbb;" glyph-name="guillemotright" horiz-adv-x="265" d="M231 17Q227 17 226 22T228 32L374 186L296 290Q292 297 292 302Q292 309 297 309Q302 309 308 302L409 198Q412 194 412 187Q412 174 396 159L233 18Q232 17 232 17T231 17ZM89 17Q86
17 85 22T86 32L232 186L154 290Q151 296 151 302Q151 309 156 309Q160 309 166 302L267 198Q270 194 270 187Q270 174 254 159L91 18Q90 17 89 17Z" />
<glyph unicode="&#xbc;" glyph-name="onequarter" horiz-adv-x="547" d="M20 0L458 576H484L46 0H20ZM42 284Q56 306 75 335T114 395T153 453T185 498Q178 494 172 489T159 480Q151 475 138 471T115 465T105 468L106 470Q131 483 158 502T213 543L229 556Q250
569 261 570Q269 570 266 562T251 538Q216 489 189 446T137 361L120 333Q104 308 90 298T50 284H42ZM290 -5L288 -2Q301 15 320 44T361 106H284L274 105Q266 105 266 109V110Q283 130 310 151T367 194Q383 205 401 218T436 245Q442 250 454 259T480 275T503 284Q507
284 507 280Q507 273 493 254Q474 226 455 196T414 128Q423 130 433 131T453 133L455 131Q455 127 447 119T431 106H400L361 41Q345 17 332 7T292 -5H290ZM312 124L331 125Q342 125 352 125T374 126L382 137Q386 144 390 150T398 162Q412 183 423 200T442 229Q410
207 373 178T312 124Z" />
<glyph unicode="&#xbd;" glyph-name="onehalf" horiz-adv-x="526" d="M20 0L458 576H484L46 0H20ZM42 284Q56 306 75 335T114 395T153 453T185 498Q178 494 172 489T159 480Q151 475 138 471T115 465T105 468L106 470Q131 483 158 502T213 543L229 556Q250 569
261 570Q269 570 266 562T251 538Q216 489 189 446T137 361L120 333Q104 308 90 298T50 284H42ZM363 -3Q354 -3 345 -2T325 2Q323 3 322 3T318 4Q309 6 300 7T280 9Q272 9 263 7T247 3V3H244Q235 3 235 11Q235 19 249 23L254 26L278 41L323 66Q339 77 359 92T395
124Q406 135 422 154T450 194T462 233Q462 253 444 253Q419 253 397 237T363 202L362 200Q360 199 358 197T352 195Q344 195 344 202Q364 241 397 257T455 273Q506 273 506 235Q506 213 492 192T460 153T429 124L421 116Q390 89 355 66T285 24Q293 25 300 25T315
25Q341 25 366 28T412 53L414 56Q425 68 430 68Q436 68 434 59Q427 21 397 5Q389 1 380 -1T363 -3Z" />
<glyph unicode="&#xbe;" glyph-name="threequarters" horiz-adv-x="596" d="M69 0L507 576H533L95 0H69ZM85 292Q23 292 23 326Q23 345 38 362T78 390T131 401Q158 401 155 390H142Q125 390 104 382T67 359T52 329Q52 306 84 306Q124 306 159 334T208 406Q210
411 211 417T212 428Q212 444 202 444Q202 444 201 443T194 438Q189 435 183 433T170 430Q152 430 152 443Q152 455 185 456Q190 456 194 456T203 458Q226 467 245 487T265 530Q265 550 247 550Q222 550 200 534T166 499L164 497Q162 492 155 492Q148 492 148 499Q168
539 200 554T258 570Q305 570 305 534Q305 516 291 499T257 470T222 451Q252 446 252 415Q252 406 249 397Q238 369 211 345T150 307T85 292ZM339 -5L337 -2Q350 15 369 44T410 106H333L323 105Q315 105 315 109V110Q332 130 359 151T416 194Q432 205 450 218T485
245Q491 250 503 259T529 275T552 284Q556 284 556 280Q556 273 542 254Q523 226 504 196T463 128Q472 130 482 131T502 133L504 131Q504 127 496 119T480 106H449L410 41Q394 17 381 7T341 -5H339ZM361 124L380 125Q391 125 401 125T423 126L431 137Q435 144 439
150T447 162Q461 183 472 200T491 229Q459 207 422 178T361 124Z" />
<glyph unicode="&#xbf;" glyph-name="questiondown" horiz-adv-x="345" d="M280 298Q261 298 261 315Q261 329 275 343T305 357Q324 357 324 341Q324 338 322 330Q317 318 305 308T280 298ZM18 -157Q-9 -157 -25 -137T-42 -86Q-42 -44 -20 -9T38 56T112 112T183
162Q193 170 207 184T236 215T259 242Q252 212 233 183T174 122Q107 72 61 18T14 -90Q14 -128 50 -128Q80 -128 109 -106T157 -52T177 11Q177 28 170 35T163 44Q163 46 170 46Q187 46 195 32T204 1Q204 -30 186 -58T138 -109T77 -144T18 -157Z" />
<glyph unicode="&#xc0;" glyph-name="Agrave" horiz-adv-x="653" d="M91 -31Q55 -31 21 -19T-35 17T-58 81Q-58 128 -21 178T81 258Q137 283 198 294T326 306Q373 306 419 303T511 293Q561 348 612 397T713 483T814 530Q786 530 745 533T658 541T564 545Q496 545
437 531T345 473Q336 460 332 448T328 425Q328 411 334 400Q338 396 343 392T352 387Q348 383 342 383Q335 383 329 386T318 394Q308 405 303 419T298 448Q298 476 311 495Q340 533 383 551T493 569Q501 569 509 569T526 568Q601 564 673 553T826 542Q870 542 905
546T952 563H954Q966 563 966 550Q965 533 949 527T912 521Q896 521 881 523T855 526Q805 523 751 489T641 402T532 290Q550 287 568 284T605 277Q638 318 673 356T741 426Q763 448 789 468T840 501T884 515Q871 505 844 479T794 427Q766 396 730 354T658 267Q677
263 695 259T733 250Q741 249 741 244Q741 242 738 240T729 239L648 255Q608 205 576 159T529 86Q522 73 517 60T512 35Q512 15 529 15Q540 15 559 25Q588 42 610 65T653 111Q657 111 657 105Q657 96 653 91Q607 37 577 18T509 -2Q485 -2 475 9T464 38Q464 55 471
75T490 114Q510 149 537 187T595 265Q576 268 558 271T519 276Q478 230 438 186T361 106Q324 70 284 39T197 -12T91 -31ZM95 7Q129 7 166 15T246 47T342 118Q380 153 419 194T498 279Q471 282 444 284T388 286Q312 286 233 279T79 236Q22 211 -6 173T-35 100Q-35
62 -2 35T95 7ZM957 596Q950 596 932 603T890 621T845 644T809 666T794 680Q794 686 800 691T812 697Q816 697 832 688T870 664T912 634T947 609T961 598Q961 596 957 596Z" />
<glyph unicode="&#xc1;" glyph-name="Aacute" horiz-adv-x="653" d="M91 -31Q55 -31 21 -19T-35 17T-58 81Q-58 128 -21 178T81 258Q137 283 198 294T326 306Q373 306 419 303T511 293Q561 348 612 397T713 483T814 530Q786 530 745 533T658 541T564 545Q496 545
437 531T345 473Q336 460 332 448T328 425Q328 411 334 400Q338 396 343 392T352 387Q348 383 342 383Q335 383 329 386T318 394Q308 405 303 419T298 448Q298 476 311 495Q340 533 383 551T493 569Q501 569 509 569T526 568Q601 564 673 553T826 542Q870 542 905
546T952 563H954Q966 563 966 550Q965 533 949 527T912 521Q896 521 881 523T855 526Q805 523 751 489T641 402T532 290Q550 287 568 284T605 277Q638 318 673 356T741 426Q763 448 789 468T840 501T884 515Q871 505 844 479T794 427Q766 396 730 354T658 267Q677
263 695 259T733 250Q741 249 741 244Q741 242 738 240T729 239L648 255Q608 205 576 159T529 86Q522 73 517 60T512 35Q512 15 529 15Q540 15 559 25Q588 42 610 65T653 111Q657 111 657 105Q657 96 653 91Q607 37 577 18T509 -2Q485 -2 475 9T464 38Q464 55 471
75T490 114Q510 149 537 187T595 265Q576 268 558 271T519 276Q478 230 438 186T361 106Q324 70 284 39T197 -12T91 -31ZM95 7Q129 7 166 15T246 47T342 118Q380 153 419 194T498 279Q471 282 444 284T388 286Q312 286 233 279T79 236Q22 211 -6 173T-35 100Q-35
62 -2 35T95 7ZM821 596Q817 596 817 598Q817 599 831 609T865 634T908 663T946 687T966 697Q971 697 977 692T984 680Q984 676 970 666T933 644T888 621T847 603T821 596Z" />
<glyph unicode="&#xc2;" glyph-name="Acircumflex" horiz-adv-x="653" d="M91 -31Q55 -31 21 -19T-35 17T-58 81Q-58 128 -21 178T81 258Q137 283 198 294T326 306Q373 306 419 303T511 293Q561 348 612 397T713 483T814 530Q786 530 745 533T658 541T564 545Q496
545 437 531T345 473Q336 460 332 448T328 425Q328 411 334 400Q338 396 343 392T352 387Q348 383 342 383Q335 383 329 386T318 394Q308 405 303 419T298 448Q298 476 311 495Q340 533 383 551T493 569Q501 569 509 569T526 568Q601 564 673 553T826 542Q870 542
905 546T952 563H954Q966 563 966 550Q965 533 949 527T912 521Q896 521 881 523T855 526Q805 523 751 489T641 402T532 290Q550 287 568 284T605 277Q638 318 673 356T741 426Q763 448 789 468T840 501T884 515Q871 505 844 479T794 427Q766 396 730 354T658 267Q677
263 695 259T733 250Q741 249 741 244Q741 242 738 240T729 239L648 255Q608 205 576 159T529 86Q522 73 517 60T512 35Q512 15 529 15Q540 15 559 25Q588 42 610 65T653 111Q657 111 657 105Q657 96 653 91Q607 37 577 18T509 -2Q485 -2 475 9T464 38Q464 55 471
75T490 114Q510 149 537 187T595 265Q576 268 558 271T519 276Q478 230 438 186T361 106Q324 70 284 39T197 -12T91 -31ZM95 7Q129 7 166 15T246 47T342 118Q380 153 419 194T498 279Q471 282 444 284T388 286Q312 286 233 279T79 236Q22 211 -6 173T-35 100Q-35
62 -2 35T95 7ZM768 593Q763 593 765 595Q765 596 780 606T818 629T862 656T898 676Q902 678 908 678Q912 678 924 666T951 638T976 609T986 595Q984 593 981 593Q973 593 956 602T921 623T894 644Q880 638 855 626T805 603T768 593Z" />
<glyph unicode="&#xc3;" glyph-name="Atilde" horiz-adv-x="653" d="M91 -31Q55 -31 21 -19T-35 17T-58 81Q-58 128 -21 178T81 258Q137 283 198 294T326 306Q373 306 419 303T511 293Q561 348 612 397T713 483T814 530Q786 530 745 533T658 541T564 545Q496 545
437 531T345 473Q336 460 332 448T328 425Q328 411 334 400Q338 396 343 392T352 387Q348 383 342 383Q335 383 329 386T318 394Q308 405 303 419T298 448Q298 476 311 495Q340 533 383 551T493 569Q501 569 509 569T526 568Q601 564 673 553T826 542Q870 542 905
546T952 563H954Q966 563 966 550Q965 533 949 527T912 521Q896 521 881 523T855 526Q805 523 751 489T641 402T532 290Q550 287 568 284T605 277Q638 318 673 356T741 426Q763 448 789 468T840 501T884 515Q871 505 844 479T794 427Q766 396 730 354T658 267Q677
263 695 259T733 250Q741 249 741 244Q741 242 738 240T729 239L648 255Q608 205 576 159T529 86Q522 73 517 60T512 35Q512 15 529 15Q540 15 559 25Q588 42 610 65T653 111Q657 111 657 105Q657 96 653 91Q607 37 577 18T509 -2Q485 -2 475 9T464 38Q464 55 471
75T490 114Q510 149 537 187T595 265Q576 268 558 271T519 276Q478 230 438 186T361 106Q324 70 284 39T197 -12T91 -31ZM95 7Q129 7 166 15T246 47T342 118Q380 153 419 194T498 279Q471 282 444 284T388 286Q312 286 233 279T79 236Q22 211 -6 173T-35 100Q-35
62 -2 35T95 7ZM925 598Q909 598 894 607T864 626T835 635Q819 635 812 628T795 606Q793 602 788 602T785 608Q795 639 813 651T853 664Q870 664 886 655T918 637T947 627Q961 627 973 636T993 661Q996 667 1000 667Q1007 667 1004 657Q984 598 925 598Z" />
<glyph unicode="&#xc4;" glyph-name="Adieresis" horiz-adv-x="653" d="M91 -31Q55 -31 21 -19T-35 17T-58 81Q-58 128 -21 178T81 258Q137 283 198 294T326 306Q373 306 419 303T511 293Q561 348 612 397T713 483T814 530Q786 530 745 533T658 541T564 545Q496
545 437 531T345 473Q336 460 332 448T328 425Q328 411 334 400Q338 396 343 392T352 387Q348 383 342 383Q335 383 329 386T318 394Q308 405 303 419T298 448Q298 476 311 495Q340 533 383 551T493 569Q501 569 509 569T526 568Q601 564 673 553T826 542Q870 542
905 546T952 563H954Q966 563 966 550Q965 533 949 527T912 521Q896 521 881 523T855 526Q805 523 751 489T641 402T532 290Q550 287 568 284T605 277Q638 318 673 356T741 426Q763 448 789 468T840 501T884 515Q871 505 844 479T794 427Q766 396 730 354T658 267Q677
263 695 259T733 250Q741 249 741 244Q741 242 738 240T729 239L648 255Q608 205 576 159T529 86Q522 73 517 60T512 35Q512 15 529 15Q540 15 559 25Q588 42 610 65T653 111Q657 111 657 105Q657 96 653 91Q607 37 577 18T509 -2Q485 -2 475 9T464 38Q464 55 471
75T490 114Q510 149 537 187T595 265Q576 268 558 271T519 276Q478 230 438 186T361 106Q324 70 284 39T197 -12T91 -31ZM95 7Q129 7 166 15T246 47T342 118Q380 153 419 194T498 279Q471 282 444 284T388 286Q312 286 233 279T79 236Q22 211 -6 173T-35 100Q-35
62 -2 35T95 7ZM936 594Q926 594 920 600T913 617Q913 631 924 641T948 652Q959 652 965 646T972 629Q972 616 961 605T936 594ZM839 594Q829 594 822 600T815 617Q815 631 826 641T851 652Q862 652 868 646T874 629Q874 616 863 605T839 594Z" />
<glyph unicode="&#xc5;" glyph-name="Aring" horiz-adv-x="653" d="M91 -31Q55 -31 21 -19T-35 17T-58 81Q-58 128 -21 178T81 258Q137 283 198 294T326 306Q373 306 419 303T511 293Q561 348 612 397T713 483T814 530Q786 530 745 533T658 541T564 545Q496 545
437 531T345 473Q336 460 332 448T328 425Q328 411 334 400Q338 396 343 392T352 387Q348 383 342 383Q335 383 329 386T318 394Q308 405 303 419T298 448Q298 476 311 495Q340 533 383 551T493 569Q501 569 509 569T526 568Q601 564 673 553T826 542Q870 542 905
546T952 563H954Q966 563 966 550Q965 533 949 527T912 521Q896 521 881 523T855 526Q805 523 751 489T641 402T532 290Q550 287 568 284T605 277Q638 318 673 356T741 426Q763 448 789 468T840 501T884 515Q871 505 844 479T794 427Q766 396 730 354T658 267Q677
263 695 259T733 250Q741 249 741 244Q741 242 738 240T729 239L648 255Q608 205 576 159T529 86Q522 73 517 60T512 35Q512 15 529 15Q540 15 559 25Q588 42 610 65T653 111Q657 111 657 105Q657 96 653 91Q607 37 577 18T509 -2Q485 -2 475 9T464 38Q464 55 471
75T490 114Q510 149 537 187T595 265Q576 268 558 271T519 276Q478 230 438 186T361 106Q324 70 284 39T197 -12T91 -31ZM95 7Q129 7 166 15T246 47T342 118Q380 153 419 194T498 279Q471 282 444 284T388 286Q312 286 233 279T79 236Q22 211 -6 173T-35 100Q-35
62 -2 35T95 7ZM891 594Q870 594 855 606T840 637Q840 658 853 675T887 703T928 714Q949 714 963 702T978 672Q978 639 951 617T891 594ZM895 609Q914 609 929 630T944 673Q944 698 924 698Q907 698 891 680T875 635Q875 609 895 609Z" />
<glyph unicode="&#xc6;" glyph-name="AE" horiz-adv-x="971" d="M637 -46Q576 -46 545 -18T513 61Q513 75 516 91Q523 135 547 178T605 263Q584 267 563 270T519 276Q478 230 438 186T361 106Q324 70 284 39T197 -12T91 -31Q55 -31 21 -19T-35 17T-58 81Q-58 128
-21 178T81 258Q137 283 198 294T326 306Q372 306 418 303T510 293Q561 348 611 397T713 483T814 530Q786 530 745 533T658 541T564 545Q496 545 437 531T345 473Q336 460 332 448T328 425Q328 411 334 400Q338 396 343 392T352 387Q348 383 342 383Q335 383 329
386T318 394Q308 405 303 419T298 448Q298 476 311 495Q340 533 383 551T493 569Q501 569 509 569T526 568Q601 564 673 553T826 542Q870 542 905 546T952 563H954Q961 563 965 556Q989 567 1014 572T1066 578Q1071 578 1076 578T1086 577Q1118 574 1141 560T1165
517Q1165 509 1162 498Q1149 457 1113 425T1030 378Q1026 377 1023 377T1017 376Q1012 376 1012 379Q1012 385 1028 392Q1072 412 1101 441T1138 504Q1139 508 1139 515Q1139 530 1126 541T1075 552Q1043 552 1000 532T913 471Q885 445 864 411T826 338L821 318Q860
320 886 305Q894 300 894 294Q889 283 865 283Q837 283 823 292T805 314Q758 307 713 278T634 207Q617 185 605 166Q577 123 569 74Q568 65 567 56T565 39Q565 9 583 -9T650 -28Q694 -28 740 -6T827 51T896 128T930 206Q930 208 930 210T931 214Q931 227 923 235T897
244Q893 244 889 244T880 242Q852 237 816 213T749 154T701 78Q697 76 696 76Q691 76 694 89Q704 116 726 146T779 203T846 247T919 264Q948 264 961 252T974 219Q974 189 950 153Q931 123 897 89T819 24T729 -26T637 -46ZM615 275Q660 326 712 371T816 454T904
520Q890 521 877 523T855 526Q805 523 751 489T641 402T531 290Q573 284 615 275ZM703 292Q729 303 754 309T804 317Q803 322 803 331T802 354Q802 385 817 418Q794 392 764 360T703 292ZM95 7Q129 7 166 15T246 47T342 118Q380 153 419 194T498 279Q471 282 444
284T388 286Q312 286 233 279T79 236Q22 211 -6 173T-35 100Q-35 62 -2 35T95 7Z" />
<glyph unicode="&#xc7;" glyph-name="Ccedilla" horiz-adv-x="534" d="M202 -41Q172 -41 145 -30T100 7T82 71Q82 127 107 182T173 290Q109 298 68 322T27 392Q27 424 45 445T90 480T149 500T208 509T252 511Q257 511 275 511T315 509T353 504T369 497Q369 493
362 493Q349 493 333 494T301 496Q289 496 277 496T254 495Q234 494 204 491T145 477T95 446T75 390Q75 353 105 333T185 306Q232 362 292 409T414 492T535 547T638 567Q667 567 692 557T717 513Q717 474 687 440T605 378T491 330T361 298T233 287H225Q188 237
166 185T143 80Q143 31 165 6T217 -20Q261 -20 308 1T395 58T464 133T498 212Q498 214 498 216T499 220Q499 233 491 241T465 250Q461 250 457 250T448 248Q420 243 384 219T317 160T269 84Q265 82 264 82Q259 82 262 94Q272 121 294 151T348 209T415 253T488 270Q516
269 529 257T542 225Q542 196 518 158Q499 128 465 94T386 29T295 -21T202 -41ZM237 303Q292 303 354 314T477 346T586 393T664 451T694 516Q694 539 677 546T639 553Q598 553 546 534T439 480T331 401T237 303ZM182 45Q163 45 148 53T126 80Q126 85 131 85Q137
85 139 79Q147 69 157 66T178 62Q202 62 214 77T226 108Q226 122 218 132T194 142Q181 142 174 139T161 136Q157 136 154 138T150 145Q150 149 153 152Q155 154 164 165T186 190T207 214T217 224Q219 224 224 224T229 222Q228 221 220 212T204 193T190 174T189
163Q193 164 202 164Q222 164 242 151T262 114Q262 81 236 63T182 45Z" />
<glyph unicode="&#xc8;" glyph-name="Egrave" horiz-adv-x="467" d="M133 -46Q72 -46 41 -18T9 61Q9 75 12 91Q19 135 48 174T119 246T209 297T300 317Q299 322 299 328T298 339Q239 344 190 362T111 409T81 480Q81 500 88 518Q102 556 133 569T196 582Q201 582
206 582T217 581Q240 579 267 567T315 530Q321 523 321 520Q321 518 319 518Q317 518 309 524Q274 561 229 564Q225 565 220 565T209 565Q186 565 160 555T122 512Q118 502 116 492T114 473Q114 439 139 414T206 374T298 354Q301 395 323 434T382 506T464 558T559
578Q564 578 570 578T582 577Q614 574 637 560T661 517Q661 509 658 498Q645 456 610 426T528 376T429 348T334 338H322L317 318Q356 320 382 305Q390 300 390 294Q385 283 361 283Q333 283 319 292T301 314Q261 308 222 285T149 228T94 154T65 74Q64 65 63 56T61
39Q61 9 79 -9T146 -28Q190 -28 236 -6T323 51T392 128T426 206Q426 208 426 210T427 214Q427 227 419 235T393 244Q389 244 385 244T376 242Q348 237 312 213T245 154T197 78Q193 76 192 76Q187 76 190 89Q200 116 222 146T275 203T342 247T415 264Q444 264 457
252T470 219Q470 189 446 153Q427 123 393 89T315 24T225 -26T133 -46ZM328 352H335Q386 352 435 363T527 394T597 442T634 504Q635 508 635 515Q635 530 622 541T571 552Q539 552 496 532T409 471Q381 445 360 413T328 352ZM653 616Q646 616 628 623T586 641T541
664T505 686T490 700Q490 706 496 711T508 717Q512 717 528 708T566 684T608 654T643 629T657 618Q657 616 653 616Z" />
<glyph unicode="&#xc9;" glyph-name="Eacute" horiz-adv-x="467" d="M133 -46Q72 -46 41 -18T9 61Q9 75 12 91Q19 135 48 174T119 246T209 297T300 317Q299 322 299 328T298 339Q239 344 190 362T111 409T81 480Q81 500 88 518Q102 556 133 569T196 582Q201 582
206 582T217 581Q240 579 267 567T315 530Q321 523 321 520Q321 518 319 518Q317 518 309 524Q274 561 229 564Q225 565 220 565T209 565Q186 565 160 555T122 512Q118 502 116 492T114 473Q114 439 139 414T206 374T298 354Q301 395 323 434T382 506T464 558T559
578Q564 578 570 578T582 577Q614 574 637 560T661 517Q661 509 658 498Q645 456 610 426T528 376T429 348T334 338H322L317 318Q356 320 382 305Q390 300 390 294Q385 283 361 283Q333 283 319 292T301 314Q261 308 222 285T149 228T94 154T65 74Q64 65 63 56T61
39Q61 9 79 -9T146 -28Q190 -28 236 -6T323 51T392 128T426 206Q426 208 426 210T427 214Q427 227 419 235T393 244Q389 244 385 244T376 242Q348 237 312 213T245 154T197 78Q193 76 192 76Q187 76 190 89Q200 116 222 146T275 203T342 247T415 264Q444 264 457
252T470 219Q470 189 446 153Q427 123 393 89T315 24T225 -26T133 -46ZM328 352H335Q386 352 435 363T527 394T597 442T634 504Q635 508 635 515Q635 530 622 541T571 552Q539 552 496 532T409 471Q381 445 360 413T328 352ZM517 616Q513 616 513 618Q513 619 527
629T561 654T604 683T642 707T662 717Q667 717 673 712T680 700Q680 696 666 686T629 664T584 641T543 623T517 616Z" />
<glyph unicode="&#xca;" glyph-name="Ecircumflex" horiz-adv-x="467" d="M133 -46Q72 -46 41 -18T9 61Q9 75 12 91Q19 135 48 174T119 246T209 297T300 317Q299 322 299 328T298 339Q239 344 190 362T111 409T81 480Q81 500 88 518Q102 556 133 569T196 582Q201
582 206 582T217 581Q240 579 267 567T315 530Q321 523 321 520Q321 518 319 518Q317 518 309 524Q274 561 229 564Q225 565 220 565T209 565Q186 565 160 555T122 512Q118 502 116 492T114 473Q114 439 139 414T206 374T298 354Q301 395 323 434T382 506T464 558T559
578Q564 578 570 578T582 577Q614 574 637 560T661 517Q661 509 658 498Q645 456 610 426T528 376T429 348T334 338H322L317 318Q356 320 382 305Q390 300 390 294Q385 283 361 283Q333 283 319 292T301 314Q261 308 222 285T149 228T94 154T65 74Q64 65 63 56T61
39Q61 9 79 -9T146 -28Q190 -28 236 -6T323 51T392 128T426 206Q426 208 426 210T427 214Q427 227 419 235T393 244Q389 244 385 244T376 242Q348 237 312 213T245 154T197 78Q193 76 192 76Q187 76 190 89Q200 116 222 146T275 203T342 247T415 264Q444 264 457
252T470 219Q470 189 446 153Q427 123 393 89T315 24T225 -26T133 -46ZM328 352H335Q386 352 435 363T527 394T597 442T634 504Q635 508 635 515Q635 530 622 541T571 552Q539 552 496 532T409 471Q381 445 360 413T328 352ZM464 613Q459 613 461 615Q461 616 476
626T514 649T558 676T594 696Q598 698 604 698Q608 698 620 686T647 658T672 629T682 615Q680 613 677 613Q669 613 652 622T617 643T590 664Q576 658 551 646T501 623T464 613Z" />
<glyph unicode="&#xcb;" glyph-name="Edieresis" horiz-adv-x="467" d="M133 -46Q72 -46 41 -18T9 61Q9 75 12 91Q19 135 48 174T119 246T209 297T300 317Q299 322 299 328T298 339Q239 344 190 362T111 409T81 480Q81 500 88 518Q102 556 133 569T196 582Q201
582 206 582T217 581Q240 579 267 567T315 530Q321 523 321 520Q321 518 319 518Q317 518 309 524Q274 561 229 564Q225 565 220 565T209 565Q186 565 160 555T122 512Q118 502 116 492T114 473Q114 439 139 414T206 374T298 354Q301 395 323 434T382 506T464 558T559
578Q564 578 570 578T582 577Q614 574 637 560T661 517Q661 509 658 498Q645 456 610 426T528 376T429 348T334 338H322L317 318Q356 320 382 305Q390 300 390 294Q385 283 361 283Q333 283 319 292T301 314Q261 308 222 285T149 228T94 154T65 74Q64 65 63 56T61
39Q61 9 79 -9T146 -28Q190 -28 236 -6T323 51T392 128T426 206Q426 208 426 210T427 214Q427 227 419 235T393 244Q389 244 385 244T376 242Q348 237 312 213T245 154T197 78Q193 76 192 76Q187 76 190 89Q200 116 222 146T275 203T342 247T415 264Q444 264 457
252T470 219Q470 189 446 153Q427 123 393 89T315 24T225 -26T133 -46ZM328 352H335Q386 352 435 363T527 394T597 442T634 504Q635 508 635 515Q635 530 622 541T571 552Q539 552 496 532T409 471Q381 445 360 413T328 352ZM632 614Q622 614 616 620T609 637Q609
651 620 661T644 672Q655 672 661 666T668 649Q668 636 657 625T632 614ZM535 614Q525 614 518 620T511 637Q511 651 522 661T547 672Q558 672 564 666T570 649Q570 636 559 625T535 614Z" />
<glyph unicode="&#xcc;" glyph-name="Igrave" horiz-adv-x="600" d="M187 -50Q126 -50 92 -17T58 66Q58 80 60 94T69 124Q83 161 111 189T180 238Q200 247 233 253T291 258Q299 257 299 254T294 250Q243 250 200 222T130 154Q113 129 103 100T92 44Q92 13 110
-9T170 -32Q208 -32 246 -17T316 24Q384 76 436 150T539 297Q578 353 620 403T701 490T765 541L747 544Q740 546 727 547T696 548Q668 548 632 541T559 511T494 446Q479 423 479 394Q479 376 488 362T521 348Q525 348 529 348T538 350Q539 350 539 349Q539 343
528 339Q524 338 520 338T512 337Q475 337 460 360T445 411Q445 452 466 479Q505 532 558 548T664 564Q701 564 734 561T793 557Q826 557 856 563T898 589Q905 584 905 572Q905 559 892 545T845 530Q832 530 816 532T779 538Q761 523 739 496T694 438T655 380T629
338Q584 263 539 197T443 78T330 -6Q303 -21 263 -35T187 -50ZM865 616Q858 616 840 623T798 641T753 664T717 686T702 700Q702 706 708 711T720 717Q724 717 740 708T778 684T820 654T855 629T869 618Q869 616 865 616Z" />
<glyph unicode="&#xcd;" glyph-name="Iacute" horiz-adv-x="600" d="M187 -50Q126 -50 92 -17T58 66Q58 80 60 94T69 124Q83 161 111 189T180 238Q200 247 233 253T291 258Q299 257 299 254T294 250Q243 250 200 222T130 154Q113 129 103 100T92 44Q92 13 110
-9T170 -32Q208 -32 246 -17T316 24Q384 76 436 150T539 297Q578 353 620 403T701 490T765 541L747 544Q740 546 727 547T696 548Q668 548 632 541T559 511T494 446Q479 423 479 394Q479 376 488 362T521 348Q525 348 529 348T538 350Q539 350 539 349Q539 343
528 339Q524 338 520 338T512 337Q475 337 460 360T445 411Q445 452 466 479Q505 532 558 548T664 564Q701 564 734 561T793 557Q826 557 856 563T898 589Q905 584 905 572Q905 559 892 545T845 530Q832 530 816 532T779 538Q761 523 739 496T694 438T655 380T629
338Q584 263 539 197T443 78T330 -6Q303 -21 263 -35T187 -50ZM729 616Q725 616 725 618Q725 619 739 629T773 654T816 683T854 707T874 717Q879 717 885 712T892 700Q892 696 878 686T841 664T796 641T755 623T729 616Z" />
<glyph unicode="&#xce;" glyph-name="Icircumflex" horiz-adv-x="600" d="M187 -50Q126 -50 92 -17T58 66Q58 80 60 94T69 124Q83 161 111 189T180 238Q200 247 233 253T291 258Q299 257 299 254T294 250Q243 250 200 222T130 154Q113 129 103 100T92 44Q92 13
110 -9T170 -32Q208 -32 246 -17T316 24Q384 76 436 150T539 297Q578 353 620 403T701 490T765 541L747 544Q740 546 727 547T696 548Q668 548 632 541T559 511T494 446Q479 423 479 394Q479 376 488 362T521 348Q525 348 529 348T538 350Q539 350 539 349Q539
343 528 339Q524 338 520 338T512 337Q475 337 460 360T445 411Q445 452 466 479Q505 532 558 548T664 564Q701 564 734 561T793 557Q826 557 856 563T898 589Q905 584 905 572Q905 559 892 545T845 530Q832 530 816 532T779 538Q761 523 739 496T694 438T655 380T629
338Q584 263 539 197T443 78T330 -6Q303 -21 263 -35T187 -50ZM676 613Q671 613 673 615Q673 616 688 626T726 649T770 676T806 696Q810 698 816 698Q820 698 832 686T859 658T884 629T894 615Q892 613 889 613Q881 613 864 622T829 643T802 664Q788 658 763 646T713
623T676 613Z" />
<glyph unicode="&#xcf;" glyph-name="Idieresis" horiz-adv-x="600" d="M187 -50Q126 -50 92 -17T58 66Q58 80 60 94T69 124Q83 161 111 189T180 238Q200 247 233 253T291 258Q299 257 299 254T294 250Q243 250 200 222T130 154Q113 129 103 100T92 44Q92 13 110
-9T170 -32Q208 -32 246 -17T316 24Q384 76 436 150T539 297Q578 353 620 403T701 490T765 541L747 544Q740 546 727 547T696 548Q668 548 632 541T559 511T494 446Q479 423 479 394Q479 376 488 362T521 348Q525 348 529 348T538 350Q539 350 539 349Q539 343
528 339Q524 338 520 338T512 337Q475 337 460 360T445 411Q445 452 466 479Q505 532 558 548T664 564Q701 564 734 561T793 557Q826 557 856 563T898 589Q905 584 905 572Q905 559 892 545T845 530Q832 530 816 532T779 538Q761 523 739 496T694 438T655 380T629
338Q584 263 539 197T443 78T330 -6Q303 -21 263 -35T187 -50ZM844 614Q834 614 828 620T821 637Q821 651 832 661T856 672Q867 672 873 666T880 649Q880 636 869 625T844 614ZM747 614Q737 614 730 620T723 637Q723 651 734 661T759 672Q770 672 776 666T782 649Q782
636 771 625T747 614Z" />
<glyph unicode="&#xd0;" glyph-name="Eth" horiz-adv-x="683" d="M-37 -31Q-46 -24 -46 -10Q-46 4 -37 18T-2 40Q11 44 32 44Q67 44 120 34T254 13Q272 11 291 9T331 7Q344 7 357 8T383 11Q418 17 466 35T562 89T647 185T699 334Q701 348 702 360T703 385Q703
472 649 517Q611 482 575 437T504 343T438 250L421 226H483L466 204H405Q377 164 346 126T283 62T215 35Q247 58 282 106T350 204H279L296 226H364Q375 243 386 259T407 290Q454 358 510 422T625 533Q578 559 506 559Q439 559 379 539T268 485T182 412T126 331T106
257Q106 225 126 203T192 177Q199 177 199 174Q199 170 190 170Q131 175 103 204T75 275Q75 320 104 371T190 468T325 543T503 572Q543 571 578 566T644 547Q681 573 716 588T783 603Q801 603 819 598T849 579T862 541Q856 561 834 573T788 586Q759 586 729 572T670
534Q711 510 734 469T758 366Q758 302 734 244T670 140T586 63T502 21Q463 9 423 1T341 -7Q301 -7 252 -2T151 8Q139 9 127 9T101 10Q58 10 19 2T-37 -31Z" />
<glyph unicode="&#xd1;" glyph-name="Ntilde" horiz-adv-x="546" d="M-82 -76Q-100 -76 -118 -71T-149 -51T-162 -11Q-162 3 -152 20T-126 38Q-134 26 -134 9Q-134 -9 -119 -21T-71 -34Q-33 -34 9 -13T94 44T178 123T254 210Q294 260 335 308T414 394T483 454Q493
461 516 477T577 506Q540 505 500 507T421 515Q400 518 378 520T333 522Q272 522 218 506T135 450Q118 426 118 403Q118 387 125 377Q129 373 134 369T142 364Q138 360 132 360Q125 360 119 363T108 371Q98 382 93 396T88 425Q88 453 102 472Q130 510 174 528T285
546Q314 546 348 543T422 533Q506 519 582 519Q620 519 647 523T681 538Q692 538 688 529Q685 516 675 513T653 505Q630 497 601 467T542 393T481 300T425 203T380 118Q370 99 355 74T322 28Q350 49 388 87T467 173T548 270Q585 318 631 372T725 475T821 556T909
594Q914 595 917 595T925 595Q954 595 971 582T990 537Q990 526 984 513T965 496Q969 501 970 511T973 528Q972 545 958 555T914 566Q874 566 828 536T734 459T642 359T561 260Q523 211 478 158T391 61T318 -3Q312 -7 300 -11T276 -15Q266 -15 257 -10T246 9Q248
8 253 7T264 6Q275 6 289 14T313 50Q335 107 362 169T426 293T509 409T618 506Q609 506 599 504T589 501Q561 491 532 473T481 436Q454 413 418 375T343 291T267 198Q230 151 190 103T105 15T15 -51T-82 -76ZM817 618Q801 618 786 627T756 646T727 655Q711 655
704 648T687 626Q685 622 680 622T677 628Q687 659 705 671T745 684Q762 684 778 675T810 657T839 647Q853 647 865 656T885 681Q888 687 892 687Q899 687 896 677Q876 618 817 618Z" />
<glyph unicode="&#xd2;" glyph-name="Ograve" horiz-adv-x="534" d="M183 -30Q132 -30 107 -3T81 73Q81 101 90 135Q104 191 132 243T199 342Q113 345 64 371T14 438Q14 465 30 483T70 512T122 528T173 534Q201 534 233 531T302 520Q307 519 306 516T299 514Q278
517 253 518T206 519Q188 519 161 516T108 504T65 478T47 433Q47 402 86 380T210 356Q265 419 330 467T462 543T584 570Q619 570 635 558T651 525Q651 502 632 477Q643 458 643 432Q643 406 633 373Q617 322 581 267T497 158T394 63T285 -5T183 -30ZM279 360Q291
362 304 363T330 368Q385 427 448 465T569 505Q599 505 616 492Q629 509 629 527Q629 542 617 551T576 561Q536 561 485 534T381 461T279 360ZM363 375Q415 387 468 405T562 446Q583 457 600 474Q588 487 563 487Q511 485 460 454T363 375ZM187 -17Q231 -17 281
8T381 75T475 169T552 276T601 382Q606 399 608 413T611 437Q611 442 611 445T610 453Q601 444 586 434Q537 403 472 383T343 353Q315 320 285 279T231 192T193 101T183 17Q173 38 173 67Q173 103 188 143T225 223T271 294T313 348Q301 347 289 346T266 344Q220
287 185 227T135 110Q126 76 126 50Q126 19 141 1T187 -17ZM677 616Q670 616 652 623T610 641T565 664T529 686T514 700Q514 706 520 711T532 717Q536 717 552 708T590 684T632 654T667 629T681 618Q681 616 677 616Z" />
<glyph unicode="&#xd3;" glyph-name="Oacute" horiz-adv-x="534" d="M183 -30Q132 -30 107 -3T81 73Q81 101 90 135Q104 191 132 243T199 342Q113 345 64 371T14 438Q14 465 30 483T70 512T122 528T173 534Q201 534 233 531T302 520Q307 519 306 516T299 514Q278
517 253 518T206 519Q188 519 161 516T108 504T65 478T47 433Q47 402 86 380T210 356Q265 419 330 467T462 543T584 570Q619 570 635 558T651 525Q651 502 632 477Q643 458 643 432Q643 406 633 373Q617 322 581 267T497 158T394 63T285 -5T183 -30ZM279 360Q291
362 304 363T330 368Q385 427 448 465T569 505Q599 505 616 492Q629 509 629 527Q629 542 617 551T576 561Q536 561 485 534T381 461T279 360ZM363 375Q415 387 468 405T562 446Q583 457 600 474Q588 487 563 487Q511 485 460 454T363 375ZM187 -17Q231 -17 281
8T381 75T475 169T552 276T601 382Q606 399 608 413T611 437Q611 442 611 445T610 453Q601 444 586 434Q537 403 472 383T343 353Q315 320 285 279T231 192T193 101T183 17Q173 38 173 67Q173 103 188 143T225 223T271 294T313 348Q301 347 289 346T266 344Q220
287 185 227T135 110Q126 76 126 50Q126 19 141 1T187 -17ZM541 616Q537 616 537 618Q537 619 551 629T585 654T628 683T666 707T686 717Q691 717 697 712T704 700Q704 696 690 686T653 664T608 641T567 623T541 616Z" />
<glyph unicode="&#xd4;" glyph-name="Ocircumflex" horiz-adv-x="534" d="M183 -30Q132 -30 107 -3T81 73Q81 101 90 135Q104 191 132 243T199 342Q113 345 64 371T14 438Q14 465 30 483T70 512T122 528T173 534Q201 534 233 531T302 520Q307 519 306 516T299
514Q278 517 253 518T206 519Q188 519 161 516T108 504T65 478T47 433Q47 402 86 380T210 356Q265 419 330 467T462 543T584 570Q619 570 635 558T651 525Q651 502 632 477Q643 458 643 432Q643 406 633 373Q617 322 581 267T497 158T394 63T285 -5T183 -30ZM279
360Q291 362 304 363T330 368Q385 427 448 465T569 505Q599 505 616 492Q629 509 629 527Q629 542 617 551T576 561Q536 561 485 534T381 461T279 360ZM363 375Q415 387 468 405T562 446Q583 457 600 474Q588 487 563 487Q511 485 460 454T363 375ZM187 -17Q231
-17 281 8T381 75T475 169T552 276T601 382Q606 399 608 413T611 437Q611 442 611 445T610 453Q601 444 586 434Q537 403 472 383T343 353Q315 320 285 279T231 192T193 101T183 17Q173 38 173 67Q173 103 188 143T225 223T271 294T313 348Q301 347 289 346T266
344Q220 287 185 227T135 110Q126 76 126 50Q126 19 141 1T187 -17ZM488 613Q483 613 485 615Q485 616 500 626T538 649T582 676T618 696Q622 698 628 698Q632 698 644 686T671 658T696 629T706 615Q704 613 701 613Q693 613 676 622T641 643T614 664Q600 658 575
646T525 623T488 613Z" />
<glyph unicode="&#xd5;" glyph-name="Otilde" horiz-adv-x="534" d="M183 -30Q132 -30 107 -3T81 73Q81 101 90 135Q104 191 132 243T199 342Q113 345 64 371T14 438Q14 465 30 483T70 512T122 528T173 534Q201 534 233 531T302 520Q307 519 306 516T299 514Q278
517 253 518T206 519Q188 519 161 516T108 504T65 478T47 433Q47 402 86 380T210 356Q265 419 330 467T462 543T584 570Q619 570 635 558T651 525Q651 502 632 477Q643 458 643 432Q643 406 633 373Q617 322 581 267T497 158T394 63T285 -5T183 -30ZM279 360Q291
362 304 363T330 368Q385 427 448 465T569 505Q599 505 616 492Q629 509 629 527Q629 542 617 551T576 561Q536 561 485 534T381 461T279 360ZM363 375Q415 387 468 405T562 446Q583 457 600 474Q588 487 563 487Q511 485 460 454T363 375ZM187 -17Q231 -17 281
8T381 75T475 169T552 276T601 382Q606 399 608 413T611 437Q611 442 611 445T610 453Q601 444 586 434Q537 403 472 383T343 353Q315 320 285 279T231 192T193 101T183 17Q173 38 173 67Q173 103 188 143T225 223T271 294T313 348Q301 347 289 346T266 344Q220
287 185 227T135 110Q126 76 126 50Q126 19 141 1T187 -17ZM645 618Q629 618 614 627T584 646T555 655Q539 655 532 648T515 626Q513 622 508 622T505 628Q515 659 533 671T573 684Q590 684 606 675T638 657T667 647Q681 647 693 656T713 681Q716 687 720 687Q727
687 724 677Q704 618 645 618Z" />
<glyph unicode="&#xd6;" glyph-name="Odieresis" horiz-adv-x="534" d="M183 -30Q132 -30 107 -3T81 73Q81 101 90 135Q104 191 132 243T199 342Q113 345 64 371T14 438Q14 465 30 483T70 512T122 528T173 534Q201 534 233 531T302 520Q307 519 306 516T299 514Q278
517 253 518T206 519Q188 519 161 516T108 504T65 478T47 433Q47 402 86 380T210 356Q265 419 330 467T462 543T584 570Q619 570 635 558T651 525Q651 502 632 477Q643 458 643 432Q643 406 633 373Q617 322 581 267T497 158T394 63T285 -5T183 -30ZM279 360Q291
362 304 363T330 368Q385 427 448 465T569 505Q599 505 616 492Q629 509 629 527Q629 542 617 551T576 561Q536 561 485 534T381 461T279 360ZM363 375Q415 387 468 405T562 446Q583 457 600 474Q588 487 563 487Q511 485 460 454T363 375ZM187 -17Q231 -17 281
8T381 75T475 169T552 276T601 382Q606 399 608 413T611 437Q611 442 611 445T610 453Q601 444 586 434Q537 403 472 383T343 353Q315 320 285 279T231 192T193 101T183 17Q173 38 173 67Q173 103 188 143T225 223T271 294T313 348Q301 347 289 346T266 344Q220
287 185 227T135 110Q126 76 126 50Q126 19 141 1T187 -17ZM656 614Q646 614 640 620T633 637Q633 651 644 661T668 672Q679 672 685 666T692 649Q692 636 681 625T656 614ZM559 614Q549 614 542 620T535 637Q535 651 546 661T571 672Q582 672 588 666T594 649Q594
636 583 625T559 614Z" />
<glyph unicode="&#xd7;" glyph-name="multiply" horiz-adv-x="423" d="M67 85L208 195L145 302H170L225 209L344 302H381L237 190L300 85H274L219 176L103 85H67Z" />
<glyph unicode="&#xd8;" glyph-name="Oslash" horiz-adv-x="534" d="M78 -76L123 -15Q81 9 81 73Q81 101 90 135Q104 191 132 243T199 342Q113 345 64 371T14 438Q14 465 30 483T70 512T122 528T173 534Q201 534 233 531T302 520Q307 519 306 516T299 514Q278
517 253 518T206 519Q188 519 161 516T108 504T65 478T47 433Q47 402 86 380T210 356Q262 416 323 462T447 536T565 569L587 598H616L594 569Q623 568 637 556T651 525Q651 494 617 460Q627 442 627 418Q627 407 625 393T617 363Q602 314 569 261T490 156T393 64T288
-3T188 -30Q165 -30 145 -25L106 -76H78ZM471 406Q496 415 519 425T562 446Q575 453 585 461Q574 473 550 473Q538 475 538 478Q538 483 556 490Q586 490 603 477Q630 504 630 527Q630 541 620 550T587 560L471 406ZM279 360Q313 364 352 372T432 393L558 559Q519
553 471 525T374 455T279 360ZM190 -17Q234 -15 282 9T378 75T467 166T540 270T586 372Q596 405 596 428Q596 437 595 441Q592 438 586 434Q557 415 522 401T448 375L156 -10Q169 -17 190 -17ZM138 4L412 366Q374 358 337 352T266 344Q220 287 185 227T135 110Q126
76 126 50Q126 21 138 4Z" />
<glyph unicode="&#xd9;" glyph-name="Ugrave" horiz-adv-x="475" d="M84 -9Q66 -9 54 3T42 40Q42 64 55 94Q78 147 118 207T205 324T295 423Q309 438 335 461T392 505T446 535Q437 534 416 538T380 544Q364 546 336 549T276 552Q237 552 194 545T114 517T50 459Q44
449 40 437T35 411Q35 392 44 377T78 361Q82 361 86 361T94 363Q95 363 95 362Q95 356 84 352Q80 351 76 351T68 350Q31 350 17 372T2 423Q2 460 22 487T74 532T142 558Q183 567 228 567Q248 567 268 566T308 563Q337 561 369 558T434 554Q448 554 460 555T486
558Q491 557 486 546T464 533Q440 514 416 490T372 444T342 410Q335 403 311 374T255 304T189 218T130 130Q110 98 99 71T88 27Q88 10 104 10Q124 10 149 26T202 70Q255 121 301 180T398 296Q419 318 440 339T483 382L491 390Q517 416 547 437T600 458Q590 449
571 431T533 391Q465 310 411 230T340 75Q337 63 337 49Q337 36 341 27T358 18Q367 18 381 25Q410 42 430 62T475 111Q479 111 479 105Q479 96 475 91Q429 37 399 18T334 -2Q307 -2 297 16T286 57Q286 74 290 90T298 120Q309 146 326 175T363 233Q335 201 312 172T265
115T210 57Q179 27 146 9T84 -9ZM667 596Q660 596 642 603T600 621T555 644T519 666T504 680Q504 686 510 691T522 697Q526 697 542 688T580 664T622 634T657 609T671 598Q671 596 667 596Z" />
<glyph unicode="&#xda;" glyph-name="Uacute" horiz-adv-x="475" d="M84 -9Q66 -9 54 3T42 40Q42 64 55 94Q78 147 118 207T205 324T295 423Q309 438 335 461T392 505T446 535Q437 534 416 538T380 544Q364 546 336 549T276 552Q237 552 194 545T114 517T50 459Q44
449 40 437T35 411Q35 392 44 377T78 361Q82 361 86 361T94 363Q95 363 95 362Q95 356 84 352Q80 351 76 351T68 350Q31 350 17 372T2 423Q2 460 22 487T74 532T142 558Q183 567 228 567Q248 567 268 566T308 563Q337 561 369 558T434 554Q448 554 460 555T486
558Q491 557 486 546T464 533Q440 514 416 490T372 444T342 410Q335 403 311 374T255 304T189 218T130 130Q110 98 99 71T88 27Q88 10 104 10Q124 10 149 26T202 70Q255 121 301 180T398 296Q419 318 440 339T483 382L491 390Q517 416 547 437T600 458Q590 449
571 431T533 391Q465 310 411 230T340 75Q337 63 337 49Q337 36 341 27T358 18Q367 18 381 25Q410 42 430 62T475 111Q479 111 479 105Q479 96 475 91Q429 37 399 18T334 -2Q307 -2 297 16T286 57Q286 74 290 90T298 120Q309 146 326 175T363 233Q335 201 312 172T265
115T210 57Q179 27 146 9T84 -9ZM531 596Q527 596 527 598Q527 599 541 609T575 634T618 663T656 687T676 697Q681 697 687 692T694 680Q694 676 680 666T643 644T598 621T557 603T531 596Z" />
<glyph unicode="&#xdb;" glyph-name="Ucircumflex" horiz-adv-x="475" d="M84 -9Q66 -9 54 3T42 40Q42 64 55 94Q78 147 118 207T205 324T295 423Q309 438 335 461T392 505T446 535Q437 534 416 538T380 544Q364 546 336 549T276 552Q237 552 194 545T114 517T50
459Q44 449 40 437T35 411Q35 392 44 377T78 361Q82 361 86 361T94 363Q95 363 95 362Q95 356 84 352Q80 351 76 351T68 350Q31 350 17 372T2 423Q2 460 22 487T74 532T142 558Q183 567 228 567Q248 567 268 566T308 563Q337 561 369 558T434 554Q448 554 460 555T486
558Q491 557 486 546T464 533Q440 514 416 490T372 444T342 410Q335 403 311 374T255 304T189 218T130 130Q110 98 99 71T88 27Q88 10 104 10Q124 10 149 26T202 70Q255 121 301 180T398 296Q419 318 440 339T483 382L491 390Q517 416 547 437T600 458Q590 449
571 431T533 391Q465 310 411 230T340 75Q337 63 337 49Q337 36 341 27T358 18Q367 18 381 25Q410 42 430 62T475 111Q479 111 479 105Q479 96 475 91Q429 37 399 18T334 -2Q307 -2 297 16T286 57Q286 74 290 90T298 120Q309 146 326 175T363 233Q335 201 312 172T265
115T210 57Q179 27 146 9T84 -9ZM478 593Q473 593 475 595Q475 596 490 606T528 629T572 656T608 676Q612 678 618 678Q622 678 634 666T661 638T686 609T696 595Q694 593 691 593Q683 593 666 602T631 623T604 644Q590 638 565 626T515 603T478 593Z" />
<glyph unicode="&#xdc;" glyph-name="Udieresis" horiz-adv-x="475" d="M84 -9Q66 -9 54 3T42 40Q42 64 55 94Q78 147 118 207T205 324T295 423Q309 438 335 461T392 505T446 535Q437 534 416 538T380 544Q364 546 336 549T276 552Q237 552 194 545T114 517T50
459Q44 449 40 437T35 411Q35 392 44 377T78 361Q82 361 86 361T94 363Q95 363 95 362Q95 356 84 352Q80 351 76 351T68 350Q31 350 17 372T2 423Q2 460 22 487T74 532T142 558Q183 567 228 567Q248 567 268 566T308 563Q337 561 369 558T434 554Q448 554 460 555T486
558Q491 557 486 546T464 533Q440 514 416 490T372 444T342 410Q335 403 311 374T255 304T189 218T130 130Q110 98 99 71T88 27Q88 10 104 10Q124 10 149 26T202 70Q255 121 301 180T398 296Q419 318 440 339T483 382L491 390Q517 416 547 437T600 458Q590 449
571 431T533 391Q465 310 411 230T340 75Q337 63 337 49Q337 36 341 27T358 18Q367 18 381 25Q410 42 430 62T475 111Q479 111 479 105Q479 96 475 91Q429 37 399 18T334 -2Q307 -2 297 16T286 57Q286 74 290 90T298 120Q309 146 326 175T363 233Q335 201 312 172T265
115T210 57Q179 27 146 9T84 -9ZM646 594Q636 594 630 600T623 617Q623 631 634 641T658 652Q669 652 675 646T682 629Q682 616 671 605T646 594ZM549 594Q539 594 532 600T525 617Q525 631 536 641T561 652Q572 652 578 646T584 629Q584 616 573 605T549 594Z"
/>
<glyph unicode="&#xdd;" glyph-name="Yacute" horiz-adv-x="435" d="M-61 -272Q-120 -272 -145 -243T-170 -174Q-170 -137 -152 -97T-106 -27Q-77 4 -38 27T43 60Q46 74 55 94Q78 147 118 207T205 324T295 423Q309 438 335 461T392 505T446 535Q437 534 416 538T380
544Q364 546 336 549T276 552Q237 552 194 545T114 517T50 459Q44 449 40 437T35 411Q35 392 44 377T78 361Q82 361 86 361T94 363Q95 363 95 362Q95 356 84 352Q80 351 76 351T68 350Q31 350 17 372T2 423Q2 460 22 487T74 532T142 558Q183 567 228 567Q248 567
268 566T308 563Q337 561 369 558T434 554Q448 554 460 555T486 558Q491 557 486 546T464 533Q440 514 416 490T372 444T342 410Q335 403 311 374T255 304T189 218T130 130Q119 113 111 97T97 66Q109 66 121 65T145 62Q155 61 155 58Q155 56 149 56Q143 56 137
57T124 58Q108 58 93 55Q90 47 89 40T88 26Q88 16 92 13T104 10Q124 10 149 26T202 70Q244 115 291 168T384 278T470 384Q472 389 474 394T478 405Q485 425 497 425Q504 425 501 415Q482 358 454 285T388 135T303 -14T200 -145T78 -237T-61 -272ZM-70 -256Q-26
-256 13 -235T89 -181T156 -114Q195 -72 239 -13T325 112T403 243T462 363Q426 308 383 252T295 146T210 57Q180 28 148 10T86 -9Q67 -9 54 3T41 40Q7 25 -24 2T-76 -48Q-98 -74 -116 -110T-135 -183Q-136 -214 -121 -235T-70 -256ZM487 589Q483 589 483 591Q483
592 497 602T531 627T574 656T612 680T632 690Q637 690 643 685T650 673Q650 669 636 659T599 637T554 614T513 596T487 589Z" />
<glyph unicode="&#xde;" glyph-name="Thorn" horiz-adv-x="683" d="M-28 -157Q-38 -157 -48 -156T-67 -151Q-75 -147 -83 -141T-95 -122Q-84 -131 -70 -135T-36 -139Q38 -139 96 -101T202 0T296 138L269 141Q261 142 253 142T235 142Q204 142 175 136T133 112Q127
117 127 128Q127 137 134 147T158 164Q170 167 187 167Q208 167 237 163T305 154Q343 219 379 285T456 411T542 517Q525 520 505 522T462 524Q382 524 320 504T215 453T150 386T128 320Q128 292 147 273T206 250Q212 250 211 248T204 246Q151 250 124 276T97 338Q97
370 119 405T185 470T298 518T458 537Q485 537 509 535T553 527Q582 554 613 574T680 604Q697 610 725 610Q737 610 749 609T772 602Q781 599 789 592T801 574Q780 591 741 591Q697 590 660 570T591 517Q649 496 675 459T701 378Q701 336 680 293T619 213T527 154T412
130Q396 129 377 130T337 134Q295 71 246 13T140 -88T20 -150Q-1 -157 -28 -157ZM377 147Q428 147 478 171T570 233T635 316T660 402Q660 435 642 462T580 506Q559 482 541 456T505 405Q473 356 434 288T347 149Q349 148 354 148Q360 147 365 147T377 147Z" />
<glyph unicode="&#xdf;" glyph-name="germandbls" horiz-adv-x="398" d="M-317 -242Q-339 -242 -357 -236Q-365 -232 -373 -225T-385 -207Q-374 -216 -360 -220T-326 -224Q-273 -224 -227 -198T-139 -127T-62 -30T6 76T66 174Q91 213 119 257T179 347T249 429Q273
453 302 475T366 511T436 526Q474 526 497 512T520 464Q520 430 502 400T453 346T387 303T315 276Q328 239 328 182Q328 161 326 140T317 100Q312 84 301 65T274 29T233 6Q241 6 249 7T266 10Q288 16 306 26T345 55Q358 66 373 83T398 111Q402 111 402 107Q402
104 400 99T398 91Q379 69 352 44T300 7Q268 -6 217 -6Q185 -6 156 10T127 63Q127 88 141 102T165 117Q173 117 172 109Q161 94 161 61Q161 44 167 30T191 16Q208 16 222 29Q247 51 266 92Q278 118 284 152T291 216Q291 232 289 246T284 270Q281 269 278 269T272
269Q268 269 264 269T257 270Q247 271 247 283Q247 294 259 298Q263 291 273 290T293 288Q303 288 326 294T367 308Q417 329 450 377Q458 389 469 414T480 463Q480 483 469 497T425 511Q383 511 346 481T276 407T215 320Q191 283 168 245T110 152Q89 119 59 75T-9
-18T-88 -110T-176 -187T-270 -235Q-289 -242 -317 -242Z" />
<glyph unicode="&#xe0;" glyph-name="agrave" horiz-adv-x="311" d="M18 -1Q-19 -1 -19 41Q-19 65 -5 98T37 169Q57 194 86 222T149 277T220 319T290 336Q305 336 311 332T319 322Q321 318 320 316T316 315Q312 317 300 317Q264 317 215 283T117 193Q83 155 61
119T32 58Q30 50 30 44Q30 30 41 30Q48 30 60 36T91 59Q121 85 150 120T209 191T265 259T318 306Q350 327 362 330T383 334Q378 328 361 306T325 260T294 219Q276 193 256 163T219 107T196 63Q191 46 191 38Q191 22 204 22Q213 22 225 29T251 47Q268 61 283 76T314
111Q318 111 318 105Q318 96 314 91Q301 76 283 58T246 26Q233 15 216 7T183 -1Q160 -1 151 10T142 38Q142 58 151 81T171 126Q158 110 138 88T102 50Q80 30 60 15T18 -1ZM415 381Q406 381 383 390T333 413T287 438T267 456Q267 462 273 467T285 473Q289 473 303
464T337 442T375 416T406 394T419 383Q419 381 415 381Z" />
<glyph unicode="&#xe1;" glyph-name="aacute" horiz-adv-x="311" d="M18 -1Q-19 -1 -19 41Q-19 65 -5 98T37 169Q57 194 86 222T149 277T220 319T290 336Q305 336 311 332T319 322Q321 318 320 316T316 315Q312 317 300 317Q264 317 215 283T117 193Q83 155 61
119T32 58Q30 50 30 44Q30 30 41 30Q48 30 60 36T91 59Q121 85 150 120T209 191T265 259T318 306Q350 327 362 330T383 334Q378 328 361 306T325 260T294 219Q276 193 256 163T219 107T196 63Q191 46 191 38Q191 22 204 22Q213 22 225 29T251 47Q268 61 283 76T314
111Q318 111 318 105Q318 96 314 91Q301 76 283 58T246 26Q233 15 216 7T183 -1Q160 -1 151 10T142 38Q142 58 151 81T171 126Q158 110 138 88T102 50Q80 30 60 15T18 -1ZM271 381Q267 381 267 383Q267 384 279 393T310 416T348 442T382 464T401 473Q406 473 412
468T419 456Q419 450 400 438T354 413T304 391T271 381Z" />
<glyph unicode="&#xe2;" glyph-name="acircumflex" horiz-adv-x="311" d="M18 -1Q-19 -1 -19 41Q-19 65 -5 98T37 169Q57 194 86 222T149 277T220 319T290 336Q305 336 311 332T319 322Q321 318 320 316T316 315Q312 317 300 317Q264 317 215 283T117 193Q83 155
61 119T32 58Q30 50 30 44Q30 30 41 30Q48 30 60 36T91 59Q121 85 150 120T209 191T265 259T318 306Q350 327 362 330T383 334Q378 328 361 306T325 260T294 219Q276 193 256 163T219 107T196 63Q191 46 191 38Q191 22 204 22Q213 22 225 29T251 47Q268 61 283
76T314 111Q318 111 318 105Q318 96 314 91Q301 76 283 58T246 26Q233 15 216 7T183 -1Q160 -1 151 10T142 38Q142 58 151 81T171 126Q158 110 138 88T102 50Q80 30 60 15T18 -1ZM236 378Q231 378 233 380Q233 381 247 391T281 416T321 442T356 461Q360 463 366
463Q373 463 384 451T407 423T426 394T434 380Q432 378 429 378Q421 378 407 388T379 410T352 429Q336 423 313 411T269 388T236 378Z" />
<glyph unicode="&#xe3;" glyph-name="atilde" horiz-adv-x="311" d="M18 -1Q-19 -1 -19 41Q-19 65 -5 98T37 169Q57 194 86 222T149 277T220 319T290 336Q305 336 311 332T319 322Q321 318 320 316T316 315Q312 317 300 317Q264 317 215 283T117 193Q83 155 61
119T32 58Q30 50 30 44Q30 30 41 30Q48 30 60 36T91 59Q121 85 150 120T209 191T265 259T318 306Q350 327 362 330T383 334Q378 328 361 306T325 260T294 219Q276 193 256 163T219 107T196 63Q191 46 191 38Q191 22 204 22Q213 22 225 29T251 47Q268 61 283 76T314
111Q318 111 318 105Q318 96 314 91Q301 76 283 58T246 26Q233 15 216 7T183 -1Q160 -1 151 10T142 38Q142 58 151 81T171 126Q158 110 138 88T102 50Q80 30 60 15T18 -1ZM373 383Q357 383 347 392T327 411T303 420Q287 420 280 413T263 391Q261 387 256 387T253
393Q263 424 281 436T321 449Q338 449 349 440T371 422T395 412Q409 412 421 421T441 446Q444 452 448 452Q455 452 452 442Q432 383 373 383Z" />
<glyph unicode="&#xe4;" glyph-name="adieresis" horiz-adv-x="311" d="M18 -1Q-19 -1 -19 41Q-19 65 -5 98T37 169Q57 194 86 222T149 277T220 319T290 336Q305 336 311 332T319 322Q321 318 320 316T316 315Q312 317 300 317Q264 317 215 283T117 193Q83 155
61 119T32 58Q30 50 30 44Q30 30 41 30Q48 30 60 36T91 59Q121 85 150 120T209 191T265 259T318 306Q350 327 362 330T383 334Q378 328 361 306T325 260T294 219Q276 193 256 163T219 107T196 63Q191 46 191 38Q191 22 204 22Q213 22 225 29T251 47Q268 61 283
76T314 111Q318 111 318 105Q318 96 314 91Q301 76 283 58T246 26Q233 15 216 7T183 -1Q160 -1 151 10T142 38Q142 58 151 81T171 126Q158 110 138 88T102 50Q80 30 60 15T18 -1ZM394 379Q384 379 378 385T371 402Q371 416 382 426T406 437Q417 437 423 431T430
414Q430 401 419 390T394 379ZM297 379Q287 379 280 385T273 402Q273 416 284 426T309 437Q320 437 326 431T332 414Q332 401 321 390T297 379Z" />
<glyph unicode="&#xe5;" glyph-name="aring" horiz-adv-x="311" d="M18 -1Q-19 -1 -19 41Q-19 65 -5 98T37 169Q57 194 86 222T149 277T220 319T290 336Q305 336 311 332T319 322Q321 318 320 316T316 315Q312 317 300 317Q264 317 215 283T117 193Q83 155 61
119T32 58Q30 50 30 44Q30 30 41 30Q48 30 60 36T91 59Q121 85 150 120T209 191T265 259T318 306Q350 327 362 330T383 334Q378 328 361 306T325 260T294 219Q276 193 256 163T219 107T196 63Q191 46 191 38Q191 22 204 22Q213 22 225 29T251 47Q268 61 283 76T314
111Q318 111 318 105Q318 96 314 91Q301 76 283 58T246 26Q233 15 216 7T183 -1Q160 -1 151 10T142 38Q142 58 151 81T171 126Q158 110 138 88T102 50Q80 30 60 15T18 -1ZM349 379Q328 379 313 391T298 422Q298 453 325 475T384 497Q405 497 419 485T434 455Q434
422 408 401T349 379ZM353 394Q372 394 386 414T400 456Q400 481 380 481Q363 481 348 464T333 420Q333 394 353 394Z" />
<glyph unicode="&#xe6;" glyph-name="ae" horiz-adv-x="405" d="M242 -5Q199 -5 181 14T162 67Q162 84 167 103T182 141Q175 130 161 113T131 79T102 50Q80 30 60 16T18 -1Q-19 -3 -19 41Q-19 65 -5 98T37 169Q57 194 86 222T149 277T220 319T290 336Q305 336
311 332T319 322Q321 318 320 316T316 315Q312 317 300 317Q264 317 215 283T117 193Q83 155 61 119T32 58Q30 50 30 44Q30 30 41 30Q48 30 60 36T91 59Q121 85 150 120T209 191T265 259T318 306Q350 327 362 330T383 334L369 316Q386 324 402 329T431 334Q443
334 453 329T463 305Q463 280 439 258T385 216Q351 194 314 179T250 155Q235 131 227 107T218 58Q218 35 228 25T254 15Q273 15 291 20T326 38Q349 53 370 75T410 116Q412 116 412 114Q412 110 409 103T405 92Q390 73 372 55T332 22Q313 10 291 3T242 -5ZM260 170Q286
179 321 195T383 230Q389 234 404 246T433 274T446 302Q446 318 429 318Q412 318 391 303T356 277Q332 255 307 228T260 170Z" />
<glyph unicode="&#xe7;" glyph-name="ccedilla" horiz-adv-x="236" d="M78 -7Q59 -7 39 -2T6 20T-7 67Q-7 101 11 138T59 210T126 273T198 317T266 334Q285 334 292 325T300 302Q300 289 294 277Q285 256 263 235T211 213Q200 213 199 221T199 233Q213 237 237
250T275 292Q278 298 278 303Q278 318 260 318Q237 318 201 290T120 208Q89 172 69 136T48 61Q48 38 57 25T90 11Q121 11 146 26T194 64T236 111Q240 111 240 105Q240 96 236 91Q216 68 193 45T142 8T78 -7ZM302 -177Q283 -177 268 -169T246 -142Q246 -137 251
-137Q257 -137 259 -143Q267 -153 277 -156T298 -160Q322 -160 334 -145T346 -114Q346 -100 338 -90T314 -80Q301 -80 294 -83T281 -86Q277 -86 274 -84T270 -77Q270 -73 273 -70Q275 -68 284 -57T306 -32T327 -8T337 2Q339 2 344 2T349 0Q348 -1 340 -10T324 -29T310
-48T309 -59Q313 -58 322 -58Q342 -58 362 -71T382 -108Q382 -141 356 -159T302 -177Z" />
<glyph unicode="&#xe8;" glyph-name="egrave" horiz-adv-x="235" d="M76 -7Q30 -7 11 13T-8 67Q-8 100 10 136T57 206Q74 226 99 248T153 289T210 321T261 334Q273 334 283 329T293 305Q293 280 269 258T215 216Q181 194 144 179T80 156Q65 132 56 107T47 58Q47
32 59 23T89 13Q120 13 145 27T193 65T235 111Q239 111 239 105Q239 96 235 91Q215 68 192 45T140 8T76 -7ZM92 170Q118 179 153 195T216 230Q222 234 237 246T265 274T278 302Q278 318 262 318Q245 318 224 303T189 277Q165 255 139 228T92 170ZM341 381Q332 381
309 390T259 413T213 438T193 456Q193 462 199 467T211 473Q215 473 229 464T263 442T301 416T332 394T345 383Q345 381 341 381Z" />
<glyph unicode="&#xe9;" glyph-name="eacute" horiz-adv-x="235" d="M76 -7Q30 -7 11 13T-8 67Q-8 100 10 136T57 206Q74 226 99 248T153 289T210 321T261 334Q273 334 283 329T293 305Q293 280 269 258T215 216Q181 194 144 179T80 156Q65 132 56 107T47 58Q47
32 59 23T89 13Q120 13 145 27T193 65T235 111Q239 111 239 105Q239 96 235 91Q215 68 192 45T140 8T76 -7ZM92 170Q118 179 153 195T216 230Q222 234 237 246T265 274T278 302Q278 318 262 318Q245 318 224 303T189 277Q165 255 139 228T92 170ZM197 381Q193 381
193 383Q193 384 205 393T236 416T274 442T308 464T327 473Q332 473 338 468T345 456Q345 450 326 438T280 413T230 391T197 381Z" />
<glyph unicode="&#xea;" glyph-name="ecircumflex" horiz-adv-x="235" d="M76 -7Q30 -7 11 13T-8 67Q-8 100 10 136T57 206Q74 226 99 248T153 289T210 321T261 334Q273 334 283 329T293 305Q293 280 269 258T215 216Q181 194 144 179T80 156Q65 132 56 107T47
58Q47 32 59 23T89 13Q120 13 145 27T193 65T235 111Q239 111 239 105Q239 96 235 91Q215 68 192 45T140 8T76 -7ZM92 170Q118 179 153 195T216 230Q222 234 237 246T265 274T278 302Q278 318 262 318Q245 318 224 303T189 277Q165 255 139 228T92 170ZM162 378Q157
378 159 380Q159 381 173 391T207 416T247 442T282 461Q286 463 292 463Q299 463 310 451T333 423T352 394T360 380Q358 378 355 378Q347 378 333 388T305 410T278 429Q262 423 239 411T195 388T162 378Z" />
<glyph unicode="&#xeb;" glyph-name="edieresis" horiz-adv-x="235" d="M76 -7Q30 -7 11 13T-8 67Q-8 100 10 136T57 206Q74 226 99 248T153 289T210 321T261 334Q273 334 283 329T293 305Q293 280 269 258T215 216Q181 194 144 179T80 156Q65 132 56 107T47 58Q47
32 59 23T89 13Q120 13 145 27T193 65T235 111Q239 111 239 105Q239 96 235 91Q215 68 192 45T140 8T76 -7ZM92 170Q118 179 153 195T216 230Q222 234 237 246T265 274T278 302Q278 318 262 318Q245 318 224 303T189 277Q165 255 139 228T92 170ZM320 379Q310 379
304 385T297 402Q297 416 308 426T332 437Q343 437 349 431T356 414Q356 401 345 390T320 379ZM223 379Q213 379 206 385T199 402Q199 416 210 426T235 437Q246 437 252 431T258 414Q258 401 247 390T223 379Z" />
<glyph unicode="&#xec;" glyph-name="igrave" horiz-adv-x="168" d="M32 -2Q5 -2 -6 12T-18 49Q-18 78 -1 111T43 178T96 241T143 290Q162 309 182 318T216 330T231 334Q209 309 171 263T96 165Q93 161 82 145T58 108T35 67T25 35Q25 16 45 16Q60 16 77 27T113
54T145 85T168 111Q172 111 172 105Q172 96 168 91Q130 47 100 23T32 -2ZM299 381Q290 381 267 390T217 413T171 438T151 456Q151 462 157 467T169 473Q173 473 187 464T221 442T259 416T290 394T303 383Q303 381 299 381Z" />
<glyph unicode="&#xed;" glyph-name="iacute" horiz-adv-x="168" d="M32 -2Q5 -2 -6 12T-18 49Q-18 78 -1 111T43 178T96 241T143 290Q162 309 182 318T216 330T231 334Q209 309 171 263T96 165Q93 161 82 145T58 108T35 67T25 35Q25 16 45 16Q60 16 77 27T113
54T145 85T168 111Q172 111 172 105Q172 96 168 91Q130 47 100 23T32 -2ZM155 381Q151 381 151 383Q151 384 163 393T194 416T232 442T266 464T285 473Q290 473 296 468T303 456Q303 450 284 438T238 413T188 391T155 381Z" />
<glyph unicode="&#xee;" glyph-name="icircumflex" horiz-adv-x="168" d="M32 -2Q5 -2 -6 12T-18 49Q-18 78 -1 111T43 178T96 241T143 290Q162 309 182 318T216 330T231 334Q209 309 171 263T96 165Q93 161 82 145T58 108T35 67T25 35Q25 16 45 16Q60 16 77 27T113
54T145 85T168 111Q172 111 172 105Q172 96 168 91Q130 47 100 23T32 -2ZM120 378Q115 378 117 380Q117 381 131 391T165 416T205 442T240 461Q244 463 250 463Q257 463 268 451T291 423T310 394T318 380Q316 378 313 378Q305 378 291 388T263 410T236 429Q220
423 197 411T153 388T120 378Z" />
<glyph unicode="&#xef;" glyph-name="idieresis" horiz-adv-x="168" d="M32 -2Q5 -2 -6 12T-18 49Q-18 78 -1 111T43 178T96 241T143 290Q162 309 182 318T216 330T231 334Q209 309 171 263T96 165Q93 161 82 145T58 108T35 67T25 35Q25 16 45 16Q60 16 77 27T113
54T145 85T168 111Q172 111 172 105Q172 96 168 91Q130 47 100 23T32 -2ZM278 379Q268 379 262 385T255 402Q255 416 266 426T290 437Q301 437 307 431T314 414Q314 401 303 390T278 379ZM181 379Q171 379 164 385T157 402Q157 416 168 426T193 437Q204 437 210
431T216 414Q216 401 205 390T181 379Z" />
<glyph unicode="&#xf0;" glyph-name="eth" horiz-adv-x="337" d="M54 -8Q32 -8 24 9T15 46Q15 51 15 56T16 65Q24 121 55 174T130 270Q157 299 188 317T246 339Q249 340 252 340T257 340Q277 340 282 324T285 288Q295 323 301 360T307 433Q307 458 304 480L207
441L214 467L299 502Q290 537 269 562Q246 588 211 588Q184 588 154 575H153Q151 575 151 578Q151 580 154 585T168 594Q200 610 234 610Q255 610 273 604T305 587Q319 575 328 558T343 520L422 552L414 525L348 498Q351 477 351 455Q351 409 341 359T313 267Q298
230 274 186T218 101T147 31T66 -7Q63 -8 60 -8T54 -8ZM75 10Q95 14 120 36T170 92T218 163T254 232T272 286Q274 302 271 315T251 329Q228 329 201 306T148 247T100 171T65 94T52 35Q52 6 75 10Z" />
<glyph unicode="&#xf1;" glyph-name="ntilde" horiz-adv-x="294" d="M158 -1Q137 -1 128 10T119 40Q119 67 138 101T187 174T251 249T315 317Q300 317 283 309T247 290Q220 272 188 242T124 178T63 111Q40 84 27 66T4 34T-17 1Q-33 1 -33 20Q-33 40 -21 68T1 112Q27
156 60 204T123 290Q138 310 155 319T184 331T196 334Q190 325 171 296T127 228T76 149Q117 196 164 240T254 313Q267 322 281 328T310 334Q337 334 337 313Q337 297 318 275Q295 248 268 215T217 148T177 85T161 38Q161 28 166 24T176 19Q191 19 209 31T245 59T276
91T294 111Q298 111 298 105Q298 96 294 91Q280 76 257 54T208 16T158 -1ZM341 383Q325 383 315 392T295 411T271 420Q255 420 248 413T231 391Q229 387 224 387T221 393Q231 424 249 436T289 449Q306 449 317 440T339 422T363 412Q377 412 389 421T409 446Q412
452 416 452Q423 452 420 442Q400 383 341 383Z" />
<glyph unicode="&#xf2;" glyph-name="ograve" horiz-adv-x="258" d="M39 -5Q10 -5 -2 9T-15 46Q-15 74 1 112T46 189T109 261T180 315T251 336Q276 336 287 323T298 289Q298 261 282 223T239 145T178 71T108 16T39 -5ZM51 14Q72 14 101 35T162 91T219 163T262
236T279 293Q279 317 256 317Q237 317 209 295T150 237T92 163T49 89T32 34Q32 14 51 14ZM357 381Q348 381 325 390T275 413T229 438T209 456Q209 462 215 467T227 473Q231 473 245 464T279 442T317 416T348 394T361 383Q361 381 357 381Z" />
<glyph unicode="&#xf3;" glyph-name="oacute" horiz-adv-x="258" d="M39 -5Q10 -5 -2 9T-15 46Q-15 74 1 112T46 189T109 261T180 315T251 336Q276 336 287 323T298 289Q298 261 282 223T239 145T178 71T108 16T39 -5ZM51 14Q72 14 101 35T162 91T219 163T262
236T279 293Q279 317 256 317Q237 317 209 295T150 237T92 163T49 89T32 34Q32 14 51 14ZM213 381Q209 381 209 383Q209 384 221 393T252 416T290 442T324 464T343 473Q348 473 354 468T361 456Q361 450 342 438T296 413T246 391T213 381Z" />
<glyph unicode="&#xf4;" glyph-name="ocircumflex" horiz-adv-x="258" d="M39 -5Q10 -5 -2 9T-15 46Q-15 74 1 112T46 189T109 261T180 315T251 336Q276 336 287 323T298 289Q298 261 282 223T239 145T178 71T108 16T39 -5ZM51 14Q72 14 101 35T162 91T219 163T262
236T279 293Q279 317 256 317Q237 317 209 295T150 237T92 163T49 89T32 34Q32 14 51 14ZM178 378Q173 378 175 380Q175 381 189 391T223 416T263 442T298 461Q302 463 308 463Q315 463 326 451T349 423T368 394T376 380Q374 378 371 378Q363 378 349 388T321 410T294
429Q278 423 255 411T211 388T178 378Z" />
<glyph unicode="&#xf5;" glyph-name="otilde" horiz-adv-x="258" d="M39 -5Q10 -5 -2 9T-15 46Q-15 74 1 112T46 189T109 261T180 315T251 336Q276 336 287 323T298 289Q298 261 282 223T239 145T178 71T108 16T39 -5ZM51 14Q72 14 101 35T162 91T219 163T262
236T279 293Q279 317 256 317Q237 317 209 295T150 237T92 163T49 89T32 34Q32 14 51 14ZM315 383Q299 383 289 392T269 411T245 420Q229 420 222 413T205 391Q203 387 198 387T195 393Q205 424 223 436T263 449Q280 449 291 440T313 422T337 412Q351 412 363 421T383
446Q386 452 390 452Q397 452 394 442Q374 383 315 383Z" />
<glyph unicode="&#xf6;" glyph-name="odieresis" horiz-adv-x="258" d="M39 -5Q10 -5 -2 9T-15 46Q-15 74 1 112T46 189T109 261T180 315T251 336Q276 336 287 323T298 289Q298 261 282 223T239 145T178 71T108 16T39 -5ZM51 14Q72 14 101 35T162 91T219 163T262
236T279 293Q279 317 256 317Q237 317 209 295T150 237T92 163T49 89T32 34Q32 14 51 14ZM336 379Q326 379 320 385T313 402Q313 416 324 426T348 437Q359 437 365 431T372 414Q372 401 361 390T336 379ZM239 379Q229 379 222 385T215 402Q215 416 226 426T251
437Q262 437 268 431T274 414Q274 401 263 390T239 379Z" />
<glyph unicode="&#xf7;" glyph-name="divide" horiz-adv-x="306" d="M225 288Q207 288 207 304Q207 319 222 332T254 346Q272 346 272 329Q272 313 257 301T225 288ZM81 210L98 232H325L308 210H81ZM137 94Q117 94 117 111Q117 127 132 140T164 153Q181 153 181
137Q181 122 167 109T137 94Z" />
<glyph unicode="&#xf8;" glyph-name="oslash" horiz-adv-x="258" d="M-52 -94L17 -2Q0 3 -8 15T-16 46Q-16 74 0 112T45 189T109 261T180 315T251 336Q263 336 272 333L321 397H343L287 323Q298 310 298 289Q298 261 282 223T239 145T177 71T107 15T37 -5L-30
-94H-52ZM35 21L260 316L256 317Q237 317 209 295T150 237T92 163T49 89T32 34Q32 26 35 21ZM52 14Q73 15 102 36T162 92T219 164T262 237T279 293Q279 298 278 301T275 308L52 14Z" />
<glyph unicode="&#xf9;" glyph-name="ugrave" horiz-adv-x="314" d="M22 0Q-2 0 -12 11T-22 39Q-22 56 -15 76T4 117Q23 149 47 181T97 242T143 290Q162 309 182 318T216 330T231 334Q209 309 172 263T96 165Q92 160 82 144T59 109T39 71T30 41Q30 30 42 31Q55
32 76 50T121 94T166 145T202 188Q213 201 229 220T262 261T293 298Q309 316 327 323T358 332T372 334Q364 324 341 295T288 227T233 145T193 64Q186 47 186 36Q186 26 191 23T202 19Q216 19 233 31T267 59T297 91T314 111Q318 111 318 105Q318 96 314 91Q299 73
278 52T233 16T186 0Q161 0 151 12T141 42Q141 59 148 79T165 118Q153 106 137 87T100 47T60 14T22 0ZM379 381Q370 381 347 390T297 413T251 438T231 456Q231 462 237 467T249 473Q253 473 267 464T301 442T339 416T370 394T383 383Q383 381 379 381Z" />
<glyph unicode="&#xfa;" glyph-name="uacute" horiz-adv-x="314" d="M22 0Q-2 0 -12 11T-22 39Q-22 56 -15 76T4 117Q23 149 47 181T97 242T143 290Q162 309 182 318T216 330T231 334Q209 309 172 263T96 165Q92 160 82 144T59 109T39 71T30 41Q30 30 42 31Q55
32 76 50T121 94T166 145T202 188Q213 201 229 220T262 261T293 298Q309 316 327 323T358 332T372 334Q364 324 341 295T288 227T233 145T193 64Q186 47 186 36Q186 26 191 23T202 19Q216 19 233 31T267 59T297 91T314 111Q318 111 318 105Q318 96 314 91Q299 73
278 52T233 16T186 0Q161 0 151 12T141 42Q141 59 148 79T165 118Q153 106 137 87T100 47T60 14T22 0ZM235 381Q231 381 231 383Q231 384 243 393T274 416T312 442T346 464T365 473Q370 473 376 468T383 456Q383 450 364 438T318 413T268 391T235 381Z" />
<glyph unicode="&#xfb;" glyph-name="ucircumflex" horiz-adv-x="314" d="M22 0Q-2 0 -12 11T-22 39Q-22 56 -15 76T4 117Q23 149 47 181T97 242T143 290Q162 309 182 318T216 330T231 334Q209 309 172 263T96 165Q92 160 82 144T59 109T39 71T30 41Q30 30 42
31Q55 32 76 50T121 94T166 145T202 188Q213 201 229 220T262 261T293 298Q309 316 327 323T358 332T372 334Q364 324 341 295T288 227T233 145T193 64Q186 47 186 36Q186 26 191 23T202 19Q216 19 233 31T267 59T297 91T314 111Q318 111 318 105Q318 96 314 91Q299
73 278 52T233 16T186 0Q161 0 151 12T141 42Q141 59 148 79T165 118Q153 106 137 87T100 47T60 14T22 0ZM200 378Q195 378 197 380Q197 381 211 391T245 416T285 442T320 461Q324 463 330 463Q337 463 348 451T371 423T390 394T398 380Q396 378 393 378Q385 378
371 388T343 410T316 429Q300 423 277 411T233 388T200 378Z" />
<glyph unicode="&#xfc;" glyph-name="udieresis" horiz-adv-x="314" d="M22 0Q-2 0 -12 11T-22 39Q-22 56 -15 76T4 117Q23 149 47 181T97 242T143 290Q162 309 182 318T216 330T231 334Q209 309 172 263T96 165Q92 160 82 144T59 109T39 71T30 41Q30 30 42 31Q55
32 76 50T121 94T166 145T202 188Q213 201 229 220T262 261T293 298Q309 316 327 323T358 332T372 334Q364 324 341 295T288 227T233 145T193 64Q186 47 186 36Q186 26 191 23T202 19Q216 19 233 31T267 59T297 91T314 111Q318 111 318 105Q318 96 314 91Q299 73
278 52T233 16T186 0Q161 0 151 12T141 42Q141 59 148 79T165 118Q153 106 137 87T100 47T60 14T22 0ZM358 379Q348 379 342 385T335 402Q335 416 346 426T370 437Q381 437 387 431T394 414Q394 401 383 390T358 379ZM261 379Q251 379 244 385T237 402Q237 416
248 426T273 437Q284 437 290 431T296 414Q296 401 285 390T261 379Z" />
<glyph unicode="&#xfd;" glyph-name="yacute" horiz-adv-x="283" d="M-126 -246Q-155 -246 -166 -242T-178 -234Q-178 -230 -171 -230Q-166 -230 -161 -230T-151 -231Q-115 -231 -79 -209T-9 -151T56 -70T112 17L189 150Q176 135 156 110T111 60T64 18T21 0Q-3
0 -13 11T-23 39Q-23 56 -16 76T3 116Q22 148 46 180T96 241T142 290Q161 309 181 318T215 330T230 334Q208 309 171 263T95 165Q91 160 81 144T58 109T38 71T29 41Q29 30 41 31Q54 32 75 50T120 94T165 145T201 188Q215 204 234 228T275 276T321 317T371 334Q380
334 382 332Q346 315 315 277T256 188T200 81T139 -30T69 -129Q24 -181 -27 -213T-126 -246ZM242 381Q238 381 238 383Q238 384 250 393T281 416T319 442T353 464T372 473Q377 473 383 468T390 456Q390 450 371 438T325 413T275 391T242 381Z" />
<glyph unicode="&#xfe;" glyph-name="thorn" horiz-adv-x="307" d="M-311 -256Q-321 -256 -333 -255T-353 -243Q-322 -243 -288 -224T-218 -173T-148 -103T-83 -26T-28 45Q43 140 97 233T193 406T264 542Q280 541 280 517Q280 491 263 446T216 346T151 240L129
207Q176 259 222 297T305 336Q337 336 337 297Q337 273 322 237T276 161Q257 136 229 108T167 54T98 12T30 -4Q3 -4 -2 6Q-4 9 -3 11T0 13Q0 13 5 12T17 11Q41 11 72 28T137 74T203 139Q237 177 260 214T290 276Q292 284 292 289Q292 297 289 302T275 306Q251 300
218 273T148 207T77 130Q58 102 40 77T2 27Q-15 5 -42 -30T-103 -105T-172 -178T-243 -234T-311 -256Z" />
<glyph unicode="&#xff;" glyph-name="ydieresis" horiz-adv-x="283" d="M-126 -246Q-155 -246 -166 -242T-178 -234Q-178 -230 -171 -230Q-166 -230 -161 -230T-151 -231Q-115 -231 -79 -209T-9 -151T56 -70T112 17L189 150Q176 135 156 110T111 60T64 18T21 0Q-3
0 -13 11T-23 39Q-23 56 -16 76T3 116Q22 148 46 180T96 241T142 290Q161 309 181 318T215 330T230 334Q208 309 171 263T95 165Q91 160 81 144T58 109T38 71T29 41Q29 30 41 31Q54 32 75 50T120 94T165 145T201 188Q215 204 234 228T275 276T321 317T371 334Q380
334 382 332Q346 315 315 277T256 188T200 81T139 -30T69 -129Q24 -181 -27 -213T-126 -246ZM365 379Q355 379 349 385T342 402Q342 416 353 426T377 437Q388 437 394 431T401 414Q401 401 390 390T365 379ZM268 379Q258 379 251 385T244 402Q244 416 255 426T280
437Q291 437 297 431T303 414Q303 401 292 390T268 379Z" />
<glyph unicode="&#x2013;" glyph-name="endash" horiz-adv-x="418" d="M101 210L118 232H449L432 210H101Z" />
<glyph unicode="&#x2014;" glyph-name="emdash" horiz-adv-x="619" d="M101 210L118 232H650L634 210H101Z" />
<glyph unicode="&#x2018;" glyph-name="quoteleft" horiz-adv-x="282" d="M119 374Q109 374 105 379T101 392Q101 404 108 418Q122 448 153 474T207 516Q212 517 222 520T231 518Q225 514 207 501T169 470T137 434Q145 439 153 439Q169 439 169 423Q169 420 169
417T167 410Q163 397 149 386T122 374H119Z" />
<glyph unicode="&#x2019;" glyph-name="quoteright" horiz-adv-x="282" d="M101 362Q107 366 125 379T163 410T195 446Q187 441 179 441Q163 441 163 457Q163 460 163 463T165 470Q170 483 184 494T210 506H213Q224 506 227 501T231 488Q231 476 224 462Q210 432
179 407T125 364Q120 363 110 360T101 362Z" />
<glyph unicode="&#x201a;" glyph-name="quotesinglbase" horiz-adv-x="147" d="M7 -84Q13 -79 31 -66T69 -35T102 0Q96 -3 88 -3Q79 -3 74 1Q68 6 68 13Q68 29 84 42T116 55Q132 55 132 39Q132 33 130 27T125 13Q112 -15 83 -40T31 -82Q26 -82 16 -86T7 -84Z" />
<glyph unicode="&#x201c;" glyph-name="quotedblleft" horiz-adv-x="390" d="M119 374Q109 374 105 379T101 392Q101 404 108 418Q122 448 153 474T207 516Q212 517 222 520T231 518Q225 514 207 501T169 470T137 434Q145 439 153 439Q169 439 169 423Q169 420
169 417T167 410Q163 397 149 386T122 374H119ZM227 374Q217 374 213 379T209 392Q209 404 216 418Q230 448 261 474T315 516Q320 517 330 520T339 518Q333 514 315 501T277 470T245 434Q253 439 261 439Q277 439 277 423Q277 420 277 417T275 410Q271 397 257
386T230 374H227Z" />
<glyph unicode="&#x201d;" glyph-name="quotedblright" horiz-adv-x="404" d="M223 362Q229 366 247 379T286 410T318 446Q310 441 301 441Q285 441 285 457Q285 460 285 463T287 470Q292 483 306 494T333 506H335Q354 506 354 488Q354 475 346 462Q332 432 301
407T247 364Q242 363 232 360T223 362ZM121 362Q127 366 145 379T183 410T215 446Q207 441 199 441Q183 441 183 457Q183 460 183 463T185 470Q190 483 204 494T230 506H233Q244 506 247 501T251 488Q251 476 244 462Q230 432 199 407T145 364Q140 363 130 360T121
362Z" />
<glyph unicode="&#x201e;" glyph-name="quotedblbase" horiz-adv-x="245" d="M107 -84Q113 -79 131 -66T170 -35T202 0Q196 -3 188 -3Q179 -3 174 1Q168 6 168 13Q168 29 184 42T216 55Q232 55 232 39Q232 33 230 27T225 13Q212 -15 183 -40T131 -82Q126 -82 116
-86T107 -84ZM7 -84Q13 -79 31 -66T69 -35T102 0Q96 -3 88 -3Q79 -3 74 1Q68 6 68 13Q68 29 84 42T116 55Q132 55 132 39Q132 33 130 27T125 13Q112 -15 83 -40T31 -82Q26 -82 16 -86T7 -84Z" />
<glyph unicode="&#x2022;" glyph-name="bullet" horiz-adv-x="394" d="M205 113Q169 113 148 134T126 188Q126 225 148 260T207 318T281 341Q318 341 340 319T362 263Q362 227 339 193T280 136T205 113Z" />
<glyph unicode="&#x2039;" glyph-name="guilsinglleft" horiz-adv-x="265" d="M199 21Q194 21 188 28L87 132Q84 137 84 143Q84 157 100 170L263 312Q264 313 264 313T265 313Q269 313 270 308T268 298L122 144L200 40Q204 33 204 28Q204 21 199 21Z" />
<glyph unicode="&#x203a;" glyph-name="guilsinglright" horiz-adv-x="265" d="M89 17Q86 17 85 22T86 32L232 186L154 290Q151 296 151 302Q151 309 156 309Q160 309 166 302L267 198Q270 194 270 187Q270 174 254 159L91 18Q90 17 89 17Z" />
</font>
</defs>
</svg>
